<?xml version="1.0" standalone="no"?>
<!DOCTYPE svg PUBLIC "-//W3C//DTD SVG 1.1//EN" "http://www.w3.org/Graphics/SVG/1.1/DTD/svg11.dtd" >
<svg xmlns="http://www.w3.org/2000/svg" xmlns:xlink="http://www.w3.org/1999/xlink" version="1.1">
<metadata>
Created by FontForge 20160405 at Thu Jun 30 05:44:32 2016
 By www-data
(c) Copyright 2005 by Tong Duc Thinh. All Rights Reserved
</metadata>
<defs>
<font id="SFUGlytusBold" horiz-adv-x="851" >
  <font-face 
    font-family="SFU Glytus"
    font-weight="700"
    font-stretch="normal"
    units-per-em="1172"
    panose-1="0 0 7 0 0 0 0 0 0 0"
    ascent="937"
    descent="-235"
    x-height="581"
    cap-height="782"
    bbox="-52 -196 1202 1417"
    underline-thickness="97"
    underline-position="-261"
    unicode-range="U+0020-F002"
  />
<missing-glyph horiz-adv-x="586" 
d="M73 0v1094h440v-1094h-440zM147 73h293v948h-293v-948z" />
    <glyph glyph-name=".notdef" horiz-adv-x="586" 
d="M73 0v1094h440v-1094h-440zM147 73h293v948h-293v-948z" />
    <glyph glyph-name=".null" horiz-adv-x="0" 
 />
    <glyph glyph-name="glyph2" horiz-adv-x="790" 
 />
    <glyph glyph-name="space" unicode=" " horiz-adv-x="790" 
 />
    <glyph glyph-name="exclam" unicode="!" horiz-adv-x="364" 
d="M267 782l-29 -566h-110l-30 566h169zM254 0h-144v139h144v-139z" />
    <glyph glyph-name="quotedbl" unicode="&#x22;" horiz-adv-x="483" 
d="M445 782l-29 -314h-116l-29 314h174zM212 782l-29 -314h-116l-29 314h174z" />
    <glyph glyph-name="numbersign" unicode="#" horiz-adv-x="791" 
d="M696 681v-390q0 -308 -305 -310q-196 -1 -266 146q-30 63 -30 136v418h-77v98h325v-98h-97v-395q0 -79 17 -116q39 -85 141 -86q154 -2 154 202v395h-95v98q117 2 233 -3q10 0 30.5 -6t30.5 -6q8 0 8 4t-6 11q-3 3 -19 13q-11 7 -16 21q-2 6 -2 13q0 21 15.5 37.5
t36.5 16.5q23 0 40 -19t17 -42q0 -35 -37 -64q-29 -22 -69 -33q-29 -18 -29 -41zM451 -175h-119v116h119v-116z" />
    <glyph glyph-name="dollar" unicode="$" horiz-adv-x="608" 
d="M564 218q1 -93 -53 -153.5t-147 -69.5v-102h-35v102h-52v-102h-36v114q-49 19 -72 64v-71h-123v245h123q1 -97 72 -140v244q-80 36 -110 60q-85 68 -86 168q-1 88 53.5 145t142.5 68v98h36v-98h5q24 0 47 -8v106h35v-118q41 -17 61 -55v67h121v-237h-121q-3 92 -61 129
v-230q94 -35 140 -81q59 -57 60 -145zM329 458v231q-27 5 -37 5h-15v-215q-4 0 44 -18q3 0 8 -3zM241 499v184q-52 -24 -52 -92q0 -56 52 -92zM417 196q0 67 -53 95v-188q53 32 53 93zM329 93v219q-20 11 -52 22v-241q10 -3 27 -5q13 0 25 5z" />
    <glyph glyph-name="percent" unicode="%" horiz-adv-x="912" 
d="M411 600q1 -85 -33 -139q-40 -64 -120 -64q-156 0 -156 209q0 82 36 132q41 57 120 58t119 -61q33 -51 34 -135zM717 799l-432 -812h-93l434 812h91zM810 191q1 -138 -82 -185q-29 -16 -69 -17q-156 -3 -159 202q-1 86 33 137q41 60 123 61q79 1 119 -62q34 -53 35 -136z
M318 600q1 127 -61 127q-60 0 -61 -126q-1 -133 61 -133q59 0 61 132zM716 188q1 131 -61 132q-60 1 -61 -129t61 -131q60 -1 61 128z" />
    <glyph glyph-name="ampersand" unicode="&#x26;" 
d="M800 0h-202l-58 61q-87 -75 -228 -76q-120 -1 -188 56q-73 61 -74 179q-2 136 155 223q-91 75 -91 181q0 87 65 133q58 41 148 41q205 0 206 -174q1 -130 -138 -203l157 -176q29 60 40 130h-67v91h265v-91h-84q-17 -117 -72 -213l55 -67h111v-95zM408 631q0 82 -81 83
q-36 0 -59 -20.5t-24 -55.5q-1 -36 23 -72q6 -9 49 -60q51 36 64 51q28 31 28 74zM466 143l-175 205q-92 -48 -92 -136q0 -57 33.5 -94.5t90.5 -38.5q77 -1 143 64z" />
    <glyph glyph-name="quotesingle" unicode="'" horiz-adv-x="255" 
d="M218 782l-30 -314h-121l-29 314h180z" />
    <glyph glyph-name="parenleft" unicode="(" horiz-adv-x="364" 
d="M320 -117h-110q-15 20 -37 65q-60 125 -85 210q-32 108 -32 224q0 231 154 475h110q-30 -40 -73 -149q-61 -155 -62 -328q-1 -198 76 -379q36 -85 59 -118z" />
    <glyph glyph-name="parenright" unicode=")" horiz-adv-x="364" 
d="M299 374q0 -246 -160 -491h-110q27 42 75 160q58 143 59 337q1 183 -80 371q-32 74 -54 106h110q39 -64 81 -155q79 -172 79 -328z" />
    <glyph glyph-name="asterisk" unicode="*" horiz-adv-x="486" 
d="M431 587l-106 -21h-27q3 -3 8 -7l13 -13l74 -85l-91 -71l-53 119q-3 8 -5 13l-8 -24l-54 -108l-91 71l99 105h-24l-110 21l35 116l99 -54q7 -4 22 -15q-3 10 -7 28l-15 117h108l-14 -117q0 -11 -9 -30q13 9 27 17l95 51z" />
    <glyph glyph-name="plus" unicode="+" horiz-adv-x="586" 
d="M572 377h-239v-232h-80v232h-238v78h238v232h80v-232h239v-78z" />
    <glyph glyph-name="comma" unicode="," horiz-adv-x="304" 
d="M210 0l-51 -146h-99l58 146h-58v144h150v-144z" />
    <glyph glyph-name="hyphen" unicode="-" horiz-adv-x="406" 
d="M336 254h-267v110h267v-110z" />
    <glyph glyph-name="hyphen" unicode="&#x2010;" horiz-adv-x="406" 
d="M336 254h-267v110h267v-110z" />
    <glyph glyph-name="period" unicode="." horiz-adv-x="304" 
d="M226 0h-149v145h149v-145z" />
    <glyph glyph-name="slash" unicode="/" horiz-adv-x="425" 
d="M420 796l-315 -809h-75l316 809h74z" />
    <glyph glyph-name="zero" unicode="0" horiz-adv-x="608" 
d="M570 403q1 -168 -50 -275q-68 -142 -218 -142q-262 0 -262 417q0 391 267 393q144 1 211 -132q51 -101 52 -261zM421 397q0 299 -114 300q-118 1 -118 -314q0 -118 13 -177q26 -119 104 -119q115 0 115 310z" />
    <glyph glyph-name="one" unicode="1" horiz-adv-x="608" 
d="M519 0h-357v97h106v546q-80 -74 -174 -133v133q102 68 181 139h146v-685h98v-97z" />
    <glyph glyph-name="two" unicode="2" horiz-adv-x="608" 
d="M558 0h-519v143l14 14l135 131q122 118 174 200q32 50 32 97q0 46 -25.5 76.5t-71.5 31.5q-106 2 -109 -142h-149q0 116 73 181q69 61 186 63q110 1 175 -50q72 -57 73 -164q1 -72 -36 -132q-33 -54 -174 -202q-105 -110 -157 -150q24 4 38 4h217v113h124v-214z" />
    <glyph glyph-name="three" unicode="3" horiz-adv-x="608" 
d="M560 206q1 -114 -75 -170q-67 -50 -185 -50q-257 0 -260 231h150q7 -128 114 -129q50 0 79 39q26 35 27 86q1 75 -43 107q-37 26 -116 29v99q61 0 89 14q60 30 61 118q1 48 -26.5 81.5t-74.5 33.5q-99 0 -103 -131h-149q11 232 252 232q110 0 175 -49q72 -54 73 -161
q1 -109 -65 -155q-19 -13 -92 -33q88 -15 128 -59.5t41 -132.5z" />
    <glyph glyph-name="four" unicode="4" horiz-adv-x="608" 
d="M579 200h-87v-107h76v-93h-324v93h103v107h-322v135l287 447h180v-485h87v-97zM352 656l-221 -359h216z" />
    <glyph glyph-name="five" unicode="5" horiz-adv-x="608" 
d="M570 260q2 -130 -66 -201.5t-198 -71.5q-107 0 -175 50q-76 55 -76 159v10h150q9 -119 102 -119q113 0 114 166q0 61 -24 102q-29 50 -86 51q-83 2 -106 -93h-141l10 469h462v-105h-325l-6 -248q28 77 150 77q104 0 161 -73q53 -66 54 -173z" />
    <glyph glyph-name="six" unicode="6" horiz-adv-x="608" 
d="M571 254q1 -121 -67.5 -193t-188.5 -72q-270 0 -272 386q-1 176 59 284q76 138 237 138q97 0 158.5 -53.5t66.5 -149.5h-146q-7 107 -91 108q-136 1 -142 -308q37 112 169 113q103 1 162 -77q54 -70 55 -176zM428 252q0 63 -25 105q-30 52 -88 52q-57 0 -90 -53
q-28 -45 -29 -106q-1 -65 24 -111q30 -56 91 -56q62 0 92 57q25 45 25 112z" />
    <glyph glyph-name="seven" unicode="7" horiz-adv-x="607" 
d="M574 667q-96 -213 -139 -322q-26 -65 -126 -345h-161q134 369 282 677h-260v-132h-128v237h532v-115z" />
    <glyph glyph-name="eight" unicode="8" horiz-adv-x="608" 
d="M564 207q1 -113 -74 -170q-67 -51 -183 -51q-262 0 -262 221q0 174 165 201q-155 30 -155 179q0 106 73 161q65 48 176 49q109 1 176 -49q74 -55 74 -161q0 -158 -154 -179q163 -22 164 -201zM414 587q0 51 -29.5 84t-79.5 35q-52 2 -81 -35q-27 -33 -28 -87
q-1 -55 24 -90q29 -40 82 -40q111 0 112 133zM421 222q1 140 -116 141q-116 1 -116 -145q0 -137 115 -138q116 -1 117 142z" />
    <glyph glyph-name="nine" unicode="9" horiz-adv-x="608" 
d="M567 407q0 -225 -76 -328q-43 -59 -90.5 -83.5t-118.5 -24.5q-96 0 -160 44q-74 51 -74 143v13h141q4 -100 92 -101q86 -1 122 111q19 59 26 180q-48 -102 -165 -102q-108 0 -169 78q-56 70 -57 181q-1 117 65.5 188t182.5 72q149 1 221 -116q60 -97 60 -255zM417 524
q1 60 -28 106q-33 53 -90 54q-62 1 -93 -55q-26 -46 -26 -112q0 -64 25 -107q30 -53 90 -53q61 0 94 56q27 45 28 111z" />
    <glyph glyph-name="colon" unicode=":" horiz-adv-x="364" 
d="M257 406h-149v144h149v-144zM257 0h-149v145h149v-145z" />
    <glyph glyph-name="semicolon" unicode=";" horiz-adv-x="362" 
d="M238 406h-149v144h149v-144zM238 0l-49 -146h-100l59 146h-59v144h149v-144z" />
    <glyph glyph-name="less" unicode="&#x3c;" horiz-adv-x="586" 
d="M546 64l-507 263v136l507 262v-161l-336 -170l336 -170v-160z" />
    <glyph glyph-name="equal" unicode="=" horiz-adv-x="586" 
d="M571 465h-557v75h557v-75zM571 292h-557v75h557v-75z" />
    <glyph glyph-name="greater" unicode="&#x3e;" horiz-adv-x="586" 
d="M547 327l-507 -263v161l336 170l-336 170v160l507 -262v-136z" />
    <glyph glyph-name="question" unicode="?" horiz-adv-x="547" 
d="M506 590q0 -113 -92 -203l-40 -39q-30 -30 -45 -60q-9 -18 -15 -85h-135v13q-1 9 -1 17q-1 66 14 104.5t60 85.5l41 43q60 63 61 132q1 98 -87 99q-80 1 -92 -110h-146q15 208 241 208q104 0 167 -50q69 -54 69 -155zM319 0h-144v138h144v-138z" />
    <glyph glyph-name="at" unicode="@" horiz-adv-x="791" 
d="M775 681h-79v-390q0 -308 -305 -310q-196 -1 -266 146q-30 63 -30 136v418h-77v98h325v-98h-97v-395q0 -79 17 -116q39 -85 141 -86q154 -2 154 202v395h-95v98h312v-98zM575 911l-142 -109h-60l88 122h114v-13z" />
    <glyph glyph-name="A" unicode="A" 
d="M833 0h-316v98h94l-50 142h-290l-49 -142h93v-98h-297v98h62l258 684h179l254 -684h62v-98zM523 335l-107 322l-108 -322h215z" />
    <glyph glyph-name="B" unicode="B" horiz-adv-x="730" 
d="M673 207q1 -106 -75 -160q-65 -47 -176 -47h-395v98h90v588h-90v96h403q225 0 225 -194q0 -161 -156 -182q173 -15 174 -199zM507 568q1 69 -36 95q-32 23 -104 23h-104v-238h103q140 0 141 120zM523 230q1 123 -140 123h-120v-255h114q145 0 146 132z" />
    <glyph glyph-name="C" unicode="C" horiz-adv-x="790" 
d="M744 261q-6 -135 -97 -207q-84 -67 -222 -68q-185 -1 -282 113q-91 107 -91 295q0 177 78 283q88 119 259 120q157 1 222 -103v88h124v-280h-135q-11 191 -178 192q-115 1 -168 -102q-40 -78 -40 -205q0 -297 207 -298q153 -1 167 172h156z" />
    <glyph glyph-name="D" unicode="D" horiz-adv-x="810" 
d="M759 388q0 -388 -395 -388h-336v100h92v581h-92v100h361q183 0 278 -106q92 -102 92 -287zM602 396q0 130 -55 203q-61 82 -187 82h-89v-581h69q262 0 262 296z" />
    <glyph glyph-name="E" unicode="E" horiz-adv-x="728" 
d="M673 0h-647v98h91v585h-91v99h647v-239h-121v140h-288v-239h117v102h103v-298h-103v100h-117v-250h288v150h121v-248z" />
    <glyph glyph-name="F" unicode="F" horiz-adv-x="689" 
d="M654 532h-120v151h-266v-254h105v103h103v-306h-103v107h-105v-235h114v-98h-352v98h92v585h-92v99h624v-250z" />
    <glyph glyph-name="G" unicode="G" 
d="M826 294h-77v-294h-129v95q-53 -106 -222 -107q-171 -1 -263 118q-84 107 -85 283t82 284q92 118 263 119q166 1 218 -101v88h127v-274h-134q-3 83 -51.5 131.5t-131.5 49.5q-109 2 -163 -96q-43 -77 -44 -195q-1 -126 43 -203q54 -96 171 -97q85 -1 134 58q46 54 49 141
h-101v97h314v-97z" />
    <glyph glyph-name="H" unicode="H" horiz-adv-x="850" 
d="M824 0h-338v98h96v245h-314v-245h95v-98h-336v98h90v585h-90v99h336v-99h-95v-236h314v236h-96v99h338v-99h-90v-585h90v-98z" />
    <glyph glyph-name="I" unicode="I" horiz-adv-x="386" 
d="M364 0h-342v97h95v586h-95v99h342v-99h-94v-586h94v-97z" />
    <glyph glyph-name="J" unicode="J" horiz-adv-x="567" 
d="M551 683h-72v-435q0 -127 -47 -190q-54 -71 -177 -71q-128 0 -182 72q-46 61 -47 194h149q0 -76 9 -106q17 -58 74 -58q48 0 63 52q7 26 7 92v450h-105v99h328v-99z" />
    <glyph glyph-name="K" unicode="K" horiz-adv-x="750" 
d="M738 0h-314v97h79l-240 309v-309h87v-97h-324v97h90v586h-90v99h324v-99h-87v-261l229 261h-74v99h303v-99h-58l-239 -261l253 -325h61v-97z" />
    <glyph glyph-name="L" unicode="L" horiz-adv-x="669" 
d="M634 0h-607v97h90v587h-90v98h360v-98h-119v-581h236v175h130v-278z" />
    <glyph glyph-name="M" unicode="M" horiz-adv-x="1034" 
d="M1007 0h-313v97h83l6 585h-6l-202 -682h-137l-200 682h-6l2 -78q2 -35 4 -120l3 -387h79v-97h-293v97h88v585h-88v100h322l108 -374q0 -1 5 -20l20 -79q26 -103 31 -153q4 26 14 95q5 19 20 75q6 22 20 74l112 382h328v-100h-88v-585h88v-97z" />
    <glyph glyph-name="N" unicode="N" 
d="M826 682h-85v-682h-191l-256 512q-7 21 -44 107q-12 28 -14 37q0 4 4 -85l6 -134l5 -340h87v-97h-311v97h90v585h-90v100h299l183 -379q83 -172 113 -264q0 -3 -6 106q-5 91 -5 171v266h-92v100h307v-100z" />
    <glyph glyph-name="O" unicode="O" 
d="M803 400q0 -188 -92 -299q-100 -119 -284 -120t-283 117q-93 110 -94 297q-1 184 93 294q100 116 280 117q181 1 283 -113q97 -110 97 -293zM640 391q0 317 -216 317q-116 0 -170 -103q-41 -79 -42 -207q-1 -130 40 -211q53 -105 171 -106q119 -1 174 101q43 79 43 209z
" />
    <glyph glyph-name="P" unicode="P" horiz-adv-x="689" 
d="M653 544q1 -133 -83 -198q-58 -45 -174 -45h-123v-204h114v-97h-357v97h93v586h-93v99h383q124 0 190 -82q49 -61 50 -156zM499 543q1 140 -139 140h-87v-283h88q137 0 138 143z" />
    <glyph glyph-name="Q" unicode="Q" horiz-adv-x="872" 
d="M824 0h-104q-4 0 -13 -1h-93q12 0 -92 -4q-5 0 -25 -1l-95 -3q-168 -5 -265 119q-87 112 -88 285q-1 176 91 286q97 118 270 119q176 1 274 -109q94 -105 95 -283q1 -229 -148 -320q60 10 137 10h56v-98zM622 393q1 122 -41 204q-54 104 -165 105t-165 -104
q-41 -80 -42 -203q-1 -125 39 -204q51 -102 165 -103q107 -1 163 104q45 84 46 201z" />
    <glyph glyph-name="R" unicode="R" horiz-adv-x="750" 
d="M725 0h-195l-67 241q-25 90 -108 90h-87v-234h91v-97h-333v97h94v585h-94v99h389q242 0 244 -204q1 -106 -62 -160q-25 -21 -109 -42q59 -10 85 -32.5t41 -79.5l45 -166h66v-97zM509 559q2 123 -128 123h-113v-254h91q67 0 106 32q43 34 44 99z" />
    <glyph glyph-name="S" unicode="S" horiz-adv-x="628" 
d="M594 213q1 -110 -69 -169q-66 -56 -177 -56q-141 0 -183 88v-76h-124v271h130q3 -181 143 -182q127 -1 127 113q0 76 -103 114l-125 46q-86 31 -124 74q-47 50 -47 134q0 107 67 166q63 56 172 56q127 0 173 -79v65h123v-255h-127q0 170 -138 171q-52 0 -85 -26
q-34 -29 -34 -80q0 -72 104 -109l121 -43q91 -32 131 -79q44 -52 45 -144z" />
    <glyph glyph-name="T" unicode="T" horiz-adv-x="729" 
d="M688 515h-127v162h-122v-579h106v-98h-361v98h104v579h-122v-162h-126v264h648v-264z" />
    <glyph glyph-name="U" unicode="U" horiz-adv-x="791" 
d="M775 681h-79v-390q0 -308 -305 -310q-196 -1 -266 146q-30 63 -30 136v418h-77v98h325v-98h-97v-395q0 -79 17 -116q39 -85 141 -86q154 -2 154 202v395h-95v98h312v-98z" />
    <glyph glyph-name="V" unicode="V" horiz-adv-x="811" 
d="M795 680h-58l-248 -680h-168l-245 680h-57v99h315v-99h-100l139 -402q18 -52 40 -142q16 71 51 173l128 371h-95v99h298v-99z" />
    <glyph glyph-name="W" unicode="W" horiz-adv-x="1095" 
d="M1091 681h-47l-163 -681h-182l-86 368q-10 49 -38 179q-5 24 -15 103q-5 -58 -13 -104q-21 -122 -37 -186l-89 -360h-183l-155 681h-53v98h297v-98h-97l81 -374q12 -54 25 -169h5q6 75 32 183l109 458h179l108 -458q10 -41 20 -99q4 -61 13 -84q4 22 13 88q3 22 16 83
l80 372h-96v98h276v-98z" />
    <glyph glyph-name="X" unicode="X" horiz-adv-x="811" 
d="M798 0h-326v87h96l-179 241l-173 -241h97v-87h-301v93h56l245 308l-230 288h-55v93h317v-87h-90l163 -224l161 224h-88v87h292v-93h-58l-227 -288l244 -308h56v-93z" />
    <glyph glyph-name="Y" unicode="Y" horiz-adv-x="750" 
d="M735 682h-52l-234 -380v-205h110v-97h-368v97h109v205l-233 380h-51v99h311v-99h-86l142 -250l147 250h-81v99h286v-99z" />
    <glyph glyph-name="Z" unicode="Z" horiz-adv-x="689" 
d="M653 0h-619v120l435 566h-300v-156h-124v249h597v-118l-439 -570h326v167h124v-258z" />
    <glyph glyph-name="bracketleft" unicode="[" horiz-adv-x="364" 
d="M280 -118h-211v974h211v-88h-84v-794h84v-92z" />
    <glyph glyph-name="backslash" unicode="\" horiz-adv-x="791" 
d="M696 681v-390q0 -308 -305 -310q-196 -1 -266 146q-30 63 -30 136v418h-77v98h325v-98h-97v-395q0 -79 17 -116q39 -85 141 -86q154 -2 154 202v395h-95v98q117 2 233 -3q10 0 30.5 -6t30.5 -6q8 0 8 4t-6 11q-3 3 -19 13q-11 7 -16 21q-2 6 -2 13q0 21 15.5 37.5
t36.5 16.5q23 0 40 -19t17 -42q0 -35 -37 -64q-29 -22 -69 -33q-29 -18 -29 -41zM432 802h-60l-142 109v13h114z" />
    <glyph glyph-name="bracketright" unicode="]" horiz-adv-x="364" 
d="M295 -122h-211v87h85v803h-85v88h211v-978z" />
    <glyph glyph-name="asciicircum" unicode="^" horiz-adv-x="791" 
d="M696 681v-390q0 -308 -305 -310q-196 -1 -266 146q-30 63 -30 136v418h-77v98h325v-98h-97v-395q0 -79 17 -116q39 -85 141 -86q154 -2 154 202v395h-95v98q117 2 233 -3q10 0 30.5 -6t30.5 -6q8 0 8 4t-6 11q-3 3 -19 13q-11 7 -16 21q-2 6 -2 13q0 21 15.5 37.5
t36.5 16.5q23 0 40 -19t17 -42q0 -35 -37 -64q-29 -22 -69 -33q-29 -18 -29 -41zM487 917q0 -39 -29 -66l-13 -12q-3 -3 -15 -20q-2 -6 -4 -27h-49q0 5 -1 9q0 33 24 57l14 14q18 18 19 43q1 32 -27 32q-27 0 -31 -36l-42 5q6 68 78 68q76 0 76 -67z" />
    <glyph glyph-name="underscore" unicode="_" horiz-adv-x="586" 
d="M586 -166h-586v97h586v-97z" />
    <glyph glyph-name="grave" unicode="`" horiz-adv-x="791" 
d="M696 681v-390q0 -308 -305 -310q-196 -1 -266 146q-30 63 -30 136v418h-77v98h325v-98h-97v-395q0 -79 17 -116q39 -85 141 -86q154 -2 154 202v395h-95v98q117 2 233 -3q10 0 30.5 -6t30.5 -6q8 0 8 4t-6 11q-3 3 -19 13q-11 7 -16 21q-2 6 -2 13q0 21 15.5 37.5
t36.5 16.5q23 0 40 -19t17 -42q0 -35 -37 -64q-29 -22 -69 -33q-29 -18 -29 -41zM575 911l-142 -109h-60l88 122h114v-13z" />
    <glyph glyph-name="a" unicode="a" horiz-adv-x="628" 
d="M606 0h-200v100q-46 -109 -184 -111q-83 -1 -134 45.5t-52 128.5q-2 120 101 166q59 26 172 27q22 0 80 -2q0 15 1 26q0 132 -95 132q-88 0 -92 -104h-146q10 191 238 192q121 1 178 -55t57 -176v-275h76v-94zM393 265v7h-7l-43 1q-75 2 -111 -16q-49 -25 -50 -92
q-1 -81 81 -82q71 -1 105 69q25 51 25 113z" />
    <glyph glyph-name="b" unicode="b" horiz-adv-x="689" 
d="M653 291q0 -129 -51 -209q-62 -96 -184 -96q-143 0 -180 118v-104h-212v94h75v608h-75v94h222l-4 -305q52 103 174 104q235 1 235 -304zM502 291q2 207 -129 208q-69 1 -103 -70q-27 -55 -27 -131q0 -211 131 -214q72 -2 104 72q23 53 24 135z" />
    <glyph glyph-name="c" unicode="c" horiz-adv-x="567" 
d="M550 195q-6 -100 -71.5 -155t-167.5 -55q-137 0 -210 91q-67 83 -67 223q0 124 61 205q67 90 187 91q117 1 153 -83v68h111v-218h-118q-12 134 -112 134q-125 0 -127 -196q-1 -85 22 -140q32 -78 105 -79q85 -1 107 114h127z" />
    <glyph glyph-name="d" unicode="d" horiz-adv-x="689" 
d="M665 0h-214v105q-32 -116 -183 -117q-122 -1 -181 95q-48 78 -48 208q0 302 234 303q128 1 169 -97v204h-79v92h225v-700h77v-93zM447 289q1 78 -26 135q-35 74 -105 74q-127 0 -127 -207q0 -205 126 -207q69 -1 105 72q26 55 27 133z" />
    <glyph glyph-name="e" unicode="e" horiz-adv-x="608" 
d="M575 286q0 -17 -1 -26h-388q10 -183 132 -183q83 0 110 96h139q-13 -94 -85 -145q-64 -45 -164 -46q-135 -2 -209 90q-69 84 -69 222q0 136 65 217q71 88 204 88q265 0 266 -313zM428 345q0 62 -27 108q-31 54 -89 56q-63 2 -101 -71q-20 -39 -22 -93h239z" />
    <glyph glyph-name="f" unicode="f" horiz-adv-x="386" 
d="M400 700q-47 7 -58 7q-85 0 -85 -83v-42h100v-92h-100v-397h97v-93h-324v93h79v397h-84v92h84v50q0 179 202 179q53 0 89 -12v-99z" />
    <glyph glyph-name="g" unicode="g" horiz-adv-x="689" 
d="M666 490h-76v-462q0 -219 -269 -219q-155 0 -214 63q-39 41 -37 92h147q21 -64 96 -65q50 -1 88 27q42 30 42 78v29q0 23 4 75q-43 -102 -173 -102q-122 0 -183 90q-52 77 -53 205q-1 125 52 204q61 91 180 92q138 2 182 -124v109h214v-92zM447 299q0 74 -29 130
q-35 71 -103 71q-67 0 -100 -66q-25 -51 -26 -126q-1 -79 23 -133q32 -73 101 -74q73 -1 107 66q27 52 27 132z" />
    <glyph glyph-name="h" unicode="h" horiz-adv-x="689" 
d="M670 0h-291v94h70v273q0 128 -87 129q-110 1 -110 -173v-229h70v-94h-293v94h75v607h-75v92h223v-300q31 100 165 101q78 1 127 -40q53 -43 53 -120v-340h73v-94z" />
    <glyph glyph-name="i" unicode="i" horiz-adv-x="364" 
d="M252 622h-121v108h121v-108zM333 0h-292v93h76v397h-76v92h225v-489h67v-93z" />
    <glyph glyph-name="j" unicode="j" horiz-adv-x="325" 
d="M245 669h-152v134h152v-134zM245 -38q0 -88 -40 -121q-35 -30 -126 -31q-52 -1 -86 6v96q28 -3 39 -3q61 0 61 77v504h-74v92h226v-620z" />
    <glyph glyph-name="k" unicode="k" horiz-adv-x="669" 
d="M649 0h-267v88h63l-107 190l-91 -78v-112h62v-88h-281v93h76v608h-76v92h219v-471l192 175h-85v85h287v-89h-66l-141 -123l158 -277h57v-93z" />
    <glyph glyph-name="l" unicode="l" horiz-adv-x="364" 
d="M331 0h-293v93h75v608h-75v92h222v-700h71v-93z" />
    <glyph glyph-name="m" unicode="m" horiz-adv-x="1034" 
d="M1013 0h-288v93h67v271q0 125 -89 126q-104 1 -104 -161v-236h68v-93h-284v93h68v280q0 117 -85 118q-57 1 -86 -59q-22 -45 -22 -109v-230h67v-93h-291v93h76v396h-76v93h212v-110q46 121 182 122q127 1 162 -105q15 50 68 78q46 25 103 26q85 1 132.5 -49.5
t47.5 -135.5v-315h72v-93z" />
    <glyph glyph-name="n" unicode="n" horiz-adv-x="689" 
d="M674 0h-287v93h68v279q0 120 -91 121q-55 1 -83 -51q-23 -42 -23 -101v-248h69v-93h-292v93h76v397h-76v92h212v-106q32 117 175 118q179 1 179 -174v-327h73v-93z" />
    <glyph glyph-name="o" unicode="o" horiz-adv-x="628" 
d="M598 291q1 -135 -73 -218q-77 -87 -210 -88q-135 -1 -212 89q-73 86 -73 223t76 219.5t212 83.5q134 1 209 -89q70 -83 71 -220zM444 297q0 81 -25 134q-33 71 -105 72t-106 -73q-26 -55 -26 -136q0 -80 25 -136q34 -75 104 -76q133 -1 133 215z" />
    <glyph glyph-name="p" unicode="p" horiz-adv-x="689" 
d="M652 300q2 -309 -238 -311q-125 -1 -167 104v-180h84v-92h-305v92h75v577h-75v92h212v-116q30 128 183 129q120 1 180 -91q50 -77 51 -204zM503 293q0 207 -124 207q-74 0 -109 -73q-26 -54 -26 -138q0 -79 26 -132q34 -70 104 -71q129 -1 129 207z" />
    <glyph glyph-name="q" unicode="q" horiz-adv-x="689" 
d="M665 -179h-306v92h83v182q-32 -106 -168 -106q-124 0 -184 91q-50 76 -51 207q-1 133 48 213q59 97 184 97q147 0 180 -116v101h214v-91h-77v-578h77v-92zM447 292q0 81 -26 135q-34 71 -106 72q-126 1 -126 -214q0 -199 124 -199q74 0 108 70q26 53 26 136z" />
    <glyph glyph-name="r" unicode="r" horiz-adv-x="445" 
d="M438 450q-25 7 -48 7q-73 0 -109 -62q-28 -50 -28 -129v-173h92v-93h-315v93h78v398h-78v91h214v-124q12 59 54 95.5t102 37.5q18 0 38 -5v-136z" />
    <glyph glyph-name="s" unicode="s" horiz-adv-x="547" 
d="M507 172q1 -87 -55.5 -135.5t-144.5 -48.5q-112 0 -151 76v-64h-106v203h114q0 -51 30 -86.5t80 -36.5q36 -1 61 20t25 56q0 52 -55 66l-32 8q-28 4 -102 24q-119 45 -121 167q-1 81 58 130q55 46 137 46q110 0 143 -74v59h103v-191h-109q-1 116 -103 116q-84 0 -84 -69
q0 -33 17 -50q23 -17 69 -25l33 -6q96 -17 133 -45q59 -44 60 -140z" />
    <glyph glyph-name="t" unicode="t" horiz-adv-x="445" 
d="M420 168q0 -178 -156 -179q-86 -1 -126 49q-37 45 -36 133l3 319h-86v92h86v98l147 49v-147h145v-92h-145v-329q0 -78 36 -79q28 -1 38 36q2 7 5 74h87q0 -15 2 -24z" />
    <glyph glyph-name="u" unicode="u" horiz-adv-x="689" 
d="M657 0h-212v104q-35 -116 -174 -116q-110 0 -155 83q-21 39 -21 117v302h-75v92h223v-368q0 -120 85 -121q107 -1 107 170v227h-79v92h226v-488h75v-94z" />
    <glyph glyph-name="v" unicode="v" horiz-adv-x="648" 
d="M632 490h-45l-173 -490h-178l-175 490h-45v92h275v-92h-73l63 -191q33 -99 52 -201q14 81 50 189l67 203h-74v92h256v-92z" />
    <glyph glyph-name="w" unicode="w" horiz-adv-x="1014" 
d="M996 490h-54l-140 -490h-183l-82 312q-10 39 -25 131q0 2 -3 26q0 5 -12 -78q-5 -34 -16 -75l-86 -316h-183l-142 490h-51v92h278v-92h-78l60 -219q12 -42 29 -151q0 -8 4 -20q3 20 14 79q5 29 23 106l79 297h178l81 -311q13 -51 29 -151q2 -7 5 -20q3 21 11 79
q6 37 27 116l53 195h-75v92h259v-92z" />
    <glyph glyph-name="x" unicode="x" horiz-adv-x="648" 
d="M633 0h-263v81h66l-123 167l-125 -167h63v-81h-239v87h43l170 214l-151 195h-51v86h263v-79h-61l111 -151l111 151h-61v79h241v-86h-50l-156 -195l166 -214h46v-87z" />
    <glyph glyph-name="y" unicode="y" horiz-adv-x="648" 
d="M634 490h-43l-215 -539q-31 -78 -65 -107q-40 -35 -118 -36q-59 -1 -78 6v102q31 -5 56 -6q32 -1 46 9q13 7 29 40l17 34l-201 497h-46v91h279v-91h-75l75 -196q17 -28 44 -142q11 63 37 136l72 202h-72v91h258v-91z" />
    <glyph glyph-name="z" unicode="z" horiz-adv-x="567" 
d="M518 0h-470v113l308 383h-187v-96h-113v182h456v-111l-307 -383h201v108h112v-196z" />
    <glyph glyph-name="braceleft" unicode="{" horiz-adv-x="607" 
d="M506 503h-150v144l51 146h99l-58 -146h58v-144zM264 503h-150v144l50 146h100l-59 -146h59v-144z" />
    <glyph glyph-name="bar" unicode="|" horiz-adv-x="791" 
d="M775 681h-79v-390q0 -308 -305 -310q-196 -1 -266 146q-30 63 -30 136v418h-77v98h325v-98h-97v-395q0 -79 17 -116q39 -85 141 -86q154 -2 154 202v395h-95v98h312v-98zM451 -175h-119v116h119v-116z" />
    <glyph glyph-name="braceright" unicode="}" horiz-adv-x="608" 
d="M502 657l-53 -147h-100l58 147h-51v141h146v-141zM257 657l-52 -147h-101l58 147h-49v141h144v-141z" />
    <glyph glyph-name="asciitilde" unicode="~" horiz-adv-x="791" 
d="M696 681v-390q0 -308 -305 -310q-196 -1 -266 146q-30 63 -30 136v418h-77v98h325v-98h-97v-395q0 -79 17 -116q39 -85 141 -86q154 -2 154 202v395h-95v98q117 2 233 -3q10 0 30.5 -6t30.5 -6q8 0 8 4t-6 11q-3 3 -19 13q-11 7 -16 21q-2 6 -2 13q0 21 15.5 37.5
t36.5 16.5q23 0 40 -19t17 -42q0 -35 -37 -64q-29 -22 -69 -33q-29 -18 -29 -41zM549 889q-11 -38 -40.5 -62.5t-68.5 -24.5q-17 0 -63 30q-11 7 -31 8q-31 1 -46 -31l-44 2q13 37 43.5 62.5t67.5 25.5q23 -4 39 -12q10 -7 31 -21q6 -3 24 -7q24 -2 47 32z" />
    <glyph glyph-name="euro" horiz-adv-x="584" 
d="M612 742l-27 -183l-56 7q0 184 -111 184q-120 0 -188 -247h201l-24 -56h-193q-7 -29 -18 -86h172l-25 -55h-157q-7 -48 -7 -87q0 -65 25 -107q30 -50 91 -50q68 0 119 80q28 44 59 139l65 -11l-63 -221q-91 -62 -187 -62q-130 0 -195 99q-54 83 -54 220h-87l25 55h65
q4 29 14 86h-77l25 56h69q48 132 126 215q97 102 219 102q111 0 194 -78z" />
    <glyph glyph-name="nonbreakingspace" unicode="&#xa0;" horiz-adv-x="586" 
 />
    <glyph glyph-name="exclamdown" unicode="&#xa1;" 
d="M833 0h-316v98h94l-50 142h-290l-49 -142h93v-98h-297v98h62l258 684h179l254 -684h62v-98zM523 335l-107 322l-108 -322h215zM304 845h-60l-142 109v13h114zM580 792h-84l-68 53l-69 -53h-83v6l101 98h103l100 -98v-6z" />
    <glyph glyph-name="cent" unicode="&#xa2;" 
d="M833 0h-316v98h94l-50 142h-290l-49 -142h93v-98h-297v98h62l258 684h179l254 -684h62v-98zM523 335l-107 322l-108 -322h215zM580 792h-84l-68 53l-69 -53h-83v6l101 98h103l100 -98v-6z" />
    <glyph glyph-name="sterling" unicode="&#xa3;" horiz-adv-x="728" 
d="M673 0h-647v98h91v585h-91v99h647v-239h-121v140h-288v-239h117v102h103v-298h-103v100h-117v-250h288v150h121v-248zM500 801h-84l-68 53l-69 -53h-83v6l101 98h103l100 -98v-6z" />
    <glyph glyph-name="currency" unicode="&#xa4;" 
d="M803 400q0 -188 -92 -299q-100 -119 -284 -120t-283 117q-93 110 -94 297q-1 184 93 294q100 116 280 117q181 1 283 -113q97 -110 97 -293zM640 391q0 317 -216 317q-116 0 -170 -103q-41 -79 -42 -207q-1 -130 40 -211q53 -105 171 -106q119 -1 174 101q43 79 43 209z
M299 875h-60l-142 109v13h114zM575 822h-84l-68 53l-69 -53h-83v6l101 98h103l100 -98v-6z" />
    <glyph glyph-name="yen" unicode="&#xa5;" horiz-adv-x="750" 
d="M735 682h-52l-234 -380v-205h110v-97h-368v97h109v205l-233 380h-51v99h311v-99h-86l142 -250l147 250h-81v99h286v-99zM434 -156h-119v116h119v-116z" />
    <glyph glyph-name="brokenbar" unicode="&#xa6;" horiz-adv-x="586" 
d="M375 373h-163v409h163v-409zM375 -196h-163v375h163v-375z" />
    <glyph glyph-name="section" unicode="&#xa7;" 
d="M803 400q0 -188 -92 -299q-100 -119 -284 -120t-283 117q-93 110 -94 297q-1 184 93 294q100 116 280 117q181 1 283 -113q97 -110 97 -293zM640 391q0 317 -216 317q-116 0 -170 -103q-41 -79 -42 -207q-1 -130 40 -211q53 -105 171 -106q119 -1 174 101q43 79 43 209z
M575 822h-84l-68 53l-69 -53h-83v6l101 98h103l100 -98v-6z" />
    <glyph glyph-name="dieresis" unicode="&#xa8;" horiz-adv-x="628" 
d="M444 297q0 81 -25 134q-33 71 -105 72t-106 -73q-26 -55 -26 -136q0 -80 25 -136q34 -75 104 -76q133 -1 133 215zM446 573q41 10 40 27q0 4 -8.5 14t-8.5 21q0 16 14 27t30 11q19 0 30 -16.5t9 -35.5q-3 -31 -32 -46q-25 -13 -58 -11q135 -81 136 -273q1 -135 -73 -218
q-77 -87 -210 -88q-135 -1 -212 89q-73 86 -73 223q0 138 76 220t212 83q71 1 128 -27z" />
    <glyph glyph-name="copyright" unicode="&#xa9;" horiz-adv-x="628" 
d="M606 0h-200v100q-46 -109 -184 -111q-83 -1 -134 45.5t-52 128.5q-2 120 101 166q59 26 172 27q22 0 80 -2q0 15 1 26q0 132 -95 132q-88 0 -92 -104h-146q10 191 238 192q121 1 178 -55t57 -176v-275h76v-94zM393 265v7h-7l-43 1q-75 2 -111 -16q-49 -25 -50 -92
q-1 -81 81 -82q71 -1 105 69q25 51 25 113zM445 619h-84l-68 53l-69 -53h-83v6l101 98h103l100 -98v-6z" />
    <glyph glyph-name="ordfeminine" unicode="&#xaa;" horiz-adv-x="628" 
d="M606 0h-200v100q-46 -109 -184 -111q-83 -1 -134 45.5t-52 128.5q-2 120 101 166q59 26 172 27q22 0 80 -2q0 15 1 26q0 132 -95 132q-88 0 -92 -104h-146q10 191 238 192q121 1 178 -55t57 -176v-275h76v-94zM393 265v7h-7l-43 1q-75 2 -111 -16q-49 -25 -50 -92
q-1 -81 81 -82q71 -1 105 69q25 51 25 113zM446 733q-49 -77 -93 -92q-31 -11 -59 -11q-26 0 -56 10q-48 16 -96 93v6h68q32 -48 84 -48q56 0 83 48h69v-6zM324 739h-60l-142 109v13h114z" />
    <glyph glyph-name="guillemotleft" unicode="&#xab;" horiz-adv-x="628" 
d="M606 0h-200v100q-46 -109 -184 -111q-83 -1 -134 45.5t-52 128.5q-2 120 101 166q59 26 172 27q22 0 80 -2q0 15 1 26q0 132 -95 132q-88 0 -92 -104h-146q10 191 238 192q121 1 178 -55t57 -176v-275h76v-94zM393 265v7h-7l-43 1q-75 2 -111 -16q-49 -25 -50 -92
q-1 -81 81 -82q71 -1 105 69q25 51 25 113zM445 620h-84l-68 53l-69 -53h-83v6l101 98h103l100 -98v-6zM169 673h-60l-142 109v13h114z" />
    <glyph glyph-name="logicalnot" unicode="&#xac;" 
d="M833 0h-316v98h94l-50 142h-290l-49 -142h93v-98h-297v98h62l258 684h179l254 -684h62v-98zM523 335l-107 322l-108 -322h215zM580 792h-84l-68 53l-69 -53h-83v6l101 98h103l100 -98v-6zM667 970q0 -39 -29 -66l-13 -12q-3 -3 -15 -20q-2 -6 -4 -27h-49q0 5 -1 9
q0 33 24 57l14 14q18 18 19 43q1 32 -27 32q-26 0 -31 -36l-42 5q6 68 78 68q76 0 76 -67z" />
    <glyph glyph-name="sfthyphen" unicode="&#xad;" horiz-adv-x="396" 
d="M9 204l39 143h288l-38 -143h-289z" />
    <glyph glyph-name="registered" unicode="&#xae;" horiz-adv-x="628" 
d="M606 0h-200v100q-46 -109 -184 -111q-83 -1 -134 45.5t-52 128.5q-2 120 101 166q59 26 172 27q22 0 80 -2q0 15 1 26q0 132 -95 132q-88 0 -92 -104h-146q10 191 238 192q121 1 178 -55t57 -176v-275h76v-94zM393 265v7h-7l-43 1q-75 2 -111 -16q-49 -25 -50 -92
q-1 -81 81 -82q71 -1 105 69q25 51 25 113zM445 733q-49 -77 -93 -92q-31 -11 -59 -11q-26 0 -56 10q-48 16 -96 93v6h68q32 -48 84 -48q56 0 83 48h69v-6z" />
    <glyph glyph-name="macron" unicode="&#xaf;" horiz-adv-x="689" 
d="M582 564v-470h75v-94h-212v104q-35 -116 -174 -116q-110 0 -155 83q-21 39 -21 117v302h-75v92h223v-368q0 -120 85 -121q107 -1 107 170v227h-79v92h226q14 7 14 18q0 4 -8.5 14t-8.5 21q0 16 14 27t30 11q19 0 30 -16.5t9 -35.5q-6 -57 -80 -57zM512 729l-142 -109h-60
l88 122h114v-13z" />
    <glyph glyph-name="macron" unicode="&#x2c9;" horiz-adv-x="689" 
d="M582 564v-470h75v-94h-212v104q-35 -116 -174 -116q-110 0 -155 83q-21 39 -21 117v302h-75v92h223v-368q0 -120 85 -121q107 -1 107 170v227h-79v92h226q14 7 14 18q0 4 -8.5 14t-8.5 21q0 16 14 27t30 11q19 0 30 -16.5t9 -35.5q-6 -57 -80 -57zM512 729l-142 -109h-60
l88 122h114v-13z" />
    <glyph glyph-name="degree" unicode="&#xb0;" 
d="M580 906q-49 -77 -93 -92q-31 -11 -59 -11q-26 0 -56 10q-48 16 -96 93v6h68q32 -48 84 -48q56 0 83 48h69v-6zM833 0h-316v98h94l-50 142h-290l-49 -142h93v-98h-297v98h62l258 684h179l254 -684h62v-98zM523 335l-107 322l-108 -322h215z" />
    <glyph glyph-name="plusminus" unicode="&#xb1;" horiz-adv-x="750" 
d="M735 682h-52l-234 -380v-205h110v-97h-368v97h109v205l-233 380h-51v99h311v-99h-86l142 -250l147 250h-81v99h286v-99zM472 907q0 -39 -29 -66l-13 -12q-3 -3 -15 -20q-2 -6 -4 -27h-49q0 5 -1 9q0 33 24 57l14 14q18 18 19 43q1 32 -27 32q-27 0 -31 -36l-42 5
q6 68 78 68q76 0 76 -67z" />
    <glyph glyph-name="twosuperior" unicode="&#xb2;" horiz-adv-x="977" 
d="M940 0h-331v90q2 2 11 10l83 78q80 75 107 117q16 25 19 55q0 60 -55 60q-60 0 -64 -84h-101q0 73 47 113q44 38 118 39q69 1 111 -29q48 -34 48 -101q0 -47 -34 -94q-55 -77 -183 -186h137v67h87v-135zM762 802l-458 -838h-90l459 838h89zM336 312h-231v65h67v309
q-32 -28 -109 -77v88q67 43 116 85h98v-405h59v-65z" />
    <glyph glyph-name="threesuperior" unicode="&#xb3;" horiz-adv-x="977" 
d="M953 118h-54v-56h48v-62h-211v62h63v56h-199v85l181 265h118v-285h54v-65zM762 802l-458 -838h-90l459 838h89zM336 312h-231v65h67v309q-32 -28 -109 -77v88q67 43 116 85h98v-405h59v-65zM802 374l-123 -191h120z" />
    <glyph glyph-name="acute" unicode="&#xb4;" horiz-adv-x="628" 
d="M598 291q1 -135 -73 -218q-77 -87 -210 -88q-135 -1 -212 89q-73 86 -73 223t76 219.5t212 83.5q134 1 209 -89q70 -83 71 -220zM444 297q0 81 -25 134q-33 71 -105 72t-106 -73q-26 -55 -26 -136q0 -80 25 -136q34 -75 104 -76q133 -1 133 215zM470 620h-84l-68 53
l-69 -53h-83v6l101 98h103l100 -98v-6z" />
    <glyph glyph-name="mu" unicode="&#xb5;" horiz-adv-x="628" 
d="M606 0h-200v100q-46 -109 -184 -111q-83 -1 -134 45.5t-52 128.5q-2 120 101 166q59 26 172 27q22 0 80 -2q0 15 1 26q0 132 -95 132q-88 0 -92 -104h-146q10 191 238 192q121 1 178 -55t57 -176v-275h76v-94zM393 265v7h-7l-43 1q-75 2 -111 -16q-49 -25 -50 -92
q-1 -81 81 -82q71 -1 105 69q25 51 25 113zM325 640h-60l-142 109v13h114z" />
    <glyph glyph-name="mu" unicode="&#x3bc;" horiz-adv-x="628" 
d="M606 0h-200v100q-46 -109 -184 -111q-83 -1 -134 45.5t-52 128.5q-2 120 101 166q59 26 172 27q22 0 80 -2q0 15 1 26q0 132 -95 132q-88 0 -92 -104h-146q10 191 238 192q121 1 178 -55t57 -176v-275h76v-94zM393 265v7h-7l-43 1q-75 2 -111 -16q-49 -25 -50 -92
q-1 -81 81 -82q71 -1 105 69q25 51 25 113zM325 640h-60l-142 109v13h114z" />
    <glyph glyph-name="paragraph" unicode="&#xb6;" horiz-adv-x="791" 
d="M696 681v-390q0 -308 -305 -310q-196 -1 -266 146q-30 63 -30 136v418h-77v98h325v-98h-97v-395q0 -79 17 -116q39 -85 141 -86q154 -2 154 202v395h-95v98q117 2 233 -3q10 0 30.5 -6t30.5 -6q8 0 8 4t-6 11q-3 3 -19 13q-11 7 -16 21q-2 6 -2 13q0 21 15.5 37.5
t36.5 16.5q23 0 40 -19t17 -42q0 -35 -37 -64q-29 -22 -69 -33q-29 -18 -29 -41z" />
    <glyph glyph-name="ch270" unicode="&#xb7;" horiz-adv-x="292" 
d="M45 408q0 40 26.5 67t66.5 27t67.5 -27t27.5 -67t-27.5 -67.5t-67.5 -27.5t-66.5 27.5t-26.5 67.5z" />
    <glyph glyph-name="ch270" unicode="&#x2219;" horiz-adv-x="292" 
d="M45 408q0 40 26.5 67t66.5 27t67.5 -27t27.5 -67t-27.5 -67.5t-67.5 -27.5t-66.5 27.5t-26.5 67.5z" />
    <glyph glyph-name="cedilla" unicode="&#xb8;" horiz-adv-x="648" 
d="M634 490h-43l-215 -539q-31 -78 -65 -107q-40 -35 -118 -36q-59 -1 -78 6v102q31 -5 56 -6q32 -1 46 9q13 7 29 40l17 34l-201 497h-46v91h279v-91h-75l75 -196q17 -28 44 -142q11 63 37 136l72 202h-72v91h258v-91zM482 697q-11 -38 -40.5 -62.5t-68.5 -24.5
q-17 0 -63 30q-11 7 -31 8q-31 1 -46 -31l-44 2q13 37 43.5 62.5t67.5 25.5q23 -4 39 -12q10 -7 31 -21q6 -3 24 -7q24 -2 47 32z" />
    <glyph glyph-name="onesuperior" unicode="&#xb9;" horiz-adv-x="397" 
d="M362 439q1 -133 -165 -134q-162 -1 -167 144h104q3 -75 64 -76q27 0 44 21t17 49q0 73 -97 76v66h11q81 0 82 74q1 63 -57 63q-60 0 -61 -76h-102q7 144 162 144q69 0 111 -29q48 -33 48 -99q0 -88 -84 -109q89 -21 90 -114z" />
    <glyph glyph-name="ordmasculine" unicode="&#xba;" horiz-adv-x="628" 
d="M606 0h-200v100q-46 -109 -184 -111q-83 -1 -134 45.5t-52 128.5q-2 120 101 166q59 26 172 27q22 0 80 -2q0 15 1 26q0 132 -95 132q-88 0 -92 -104h-146q10 191 238 192q121 1 178 -55t57 -176v-275h76v-94zM393 265v7h-7l-43 1q-75 2 -111 -16q-49 -25 -50 -92
q-1 -81 81 -82q71 -1 105 69q25 51 25 113zM444 733q-49 -77 -94 -92q-30 -11 -58 -11q-26 0 -56 10q-48 16 -96 93v6h68q32 -48 84 -48q56 0 83 48h69v-6zM377 854q0 -39 -29 -66l-13 -12q-3 -3 -15 -20q-2 -6 -4 -27h-49q0 5 -1 9q0 33 24 57l14 14q18 18 19 43
q1 32 -27 32q-27 0 -31 -36l-42 5q6 68 78 68q76 0 76 -67z" />
    <glyph glyph-name="guillemotright" unicode="&#xbb;" horiz-adv-x="628" 
d="M606 0h-200v100q-46 -109 -184 -111q-83 -1 -134 45.5t-52 128.5q-2 120 101 166q59 26 172 27q22 0 80 -2q0 15 1 26q0 132 -95 132q-88 0 -92 -104h-146q10 191 238 192q121 1 178 -55t57 -176v-275h76v-94zM393 265v7h-7l-43 1q-75 2 -111 -16q-49 -25 -50 -92
q-1 -81 81 -82q71 -1 105 69q25 51 25 113zM445 620h-84l-68 53l-69 -53h-83v6l101 98h103l100 -98v-6zM532 798q0 -39 -29 -66l-13 -12q-3 -3 -15 -20q-2 -6 -4 -27h-49q0 5 -1 9q0 33 24 57l14 14q18 18 19 43q1 32 -27 32q-27 0 -31 -36l-42 5q6 68 78 68q76 0 76 -67z
" />
    <glyph glyph-name="onehalf" unicode="&#xbd;" horiz-adv-x="977" 
d="M954 118h-54v-56h47v-62h-211v62h64v56h-199v85l180 265h119v-285h54v-65zM763 802l-458 -838h-89l458 838h89zM362 439q1 -133 -165 -134q-162 -1 -167 144h104q3 -75 64 -76q27 0 44 21t17 49q0 73 -97 76v66h11q81 0 82 74q1 63 -57 63q-60 0 -61 -76h-102
q7 144 162 144q69 0 111 -29q48 -33 48 -99q0 -88 -84 -109q89 -21 90 -114zM803 374l-123 -191h120z" />
    <glyph glyph-name="questiondown" unicode="&#xbf;" 
d="M580 906q-49 -77 -93 -92q-31 -11 -59 -11q-26 0 -56 10q-48 16 -96 93v6h68q32 -48 84 -48q56 0 83 48h69v-6zM833 0h-316v98h94l-50 142h-290l-49 -142h93v-98h-297v98h62l258 684h179l254 -684h62v-98zM523 335l-107 322l-108 -322h215zM600 1021l-143 -109h-59
l88 122h114v-13z" />
    <glyph glyph-name="Agrave" unicode="&#xc0;" 
d="M458 822h-60l-142 109v13h114zM833 0h-316v98h94l-50 142h-290l-49 -142h93v-98h-297v98h62l258 684h179l254 -684h62v-98zM523 335l-107 322l-108 -322h215z" />
    <glyph glyph-name="Aacute" unicode="&#xc1;" 
d="M833 0h-316v98h94l-50 142h-290l-49 -142h93v-98h-297v98h62l258 684h179l254 -684h62v-98zM523 335l-107 322l-108 -322h215zM600 931l-142 -109h-60l88 122h114v-13z" />
    <glyph glyph-name="Acircumflex" unicode="&#xc2;" 
d="M833 0h-316v98h94l-50 142h-290l-49 -142h93v-98h-297v98h62l258 684h179l254 -684h62v-98zM523 335l-107 322l-108 -322h215zM580 792h-84l-68 53l-69 -53h-83v6l101 98h103l100 -98v-6z" />
    <glyph glyph-name="Atilde" unicode="&#xc3;" 
d="M833 0h-316v98h94l-50 142h-290l-49 -142h93v-98h-297v98h62l258 684h179l254 -684h62v-98zM523 335l-107 322l-108 -322h215zM575 909q-11 -38 -40.5 -62.5t-68.5 -24.5q-17 0 -63 30q-11 7 -31 8q-31 1 -46 -31l-44 2q13 37 43.5 62.5t67.5 25.5q25 -4 39 -12
q7 -4 31 -21q6 -3 24 -7q24 -2 47 32z" />
    <glyph glyph-name="Adieresis" unicode="&#xc4;" 
d="M458 822h-60l-142 109v13h114zM833 0h-316v98h94l-50 142h-290l-49 -142h93v-98h-297v98h62l258 684h179l254 -684h62v-98zM523 335l-107 322l-108 -322h215z" />
    <glyph glyph-name="Aring" unicode="&#xc5;" 
d="M833 0h-316v98h94l-50 142h-290l-49 -142h93v-98h-297v98h62l258 684h179l254 -684h62v-98zM523 335l-107 322l-108 -322h215zM513 937q0 -39 -29 -66l-13 -12q-3 -3 -15 -20q-2 -6 -4 -27h-49q0 5 -1 9q0 33 24 57l14 14q18 18 19 43q1 32 -27 32q-26 0 -31 -36l-42 5
q6 68 78 68q76 0 76 -67z" />
    <glyph glyph-name="AE" unicode="&#xc6;" horiz-adv-x="689" 
d="M447 289q1 78 -26 135q-35 74 -105 74q-127 0 -127 -207q0 -205 126 -207q69 -1 105 72q26 55 27 133zM442 600h-126v72h126v29h-79v92h225v-121h40v-72h-40v-507h77v-93h-214v105q-32 -116 -183 -117q-122 -1 -181 95q-48 78 -48 208q0 302 234 303q128 1 169 -97v103z
" />
    <glyph glyph-name="Ccedilla" unicode="&#xc7;" 
d="M833 0h-316v98h94l-50 142h-290l-49 -142h93v-98h-297v98h62l258 684h179l254 -684h62v-98zM523 335l-107 322l-108 -322h215zM575 909q-11 -38 -40.5 -62.5t-68.5 -24.5q-17 0 -63 30q-11 7 -31 8q-31 1 -46 -31l-44 2q13 37 43.5 62.5t67.5 25.5q25 -4 39 -12
q7 -4 31 -21q6 -3 24 -7q24 -2 47 32z" />
    <glyph glyph-name="Egrave" unicode="&#xc8;" horiz-adv-x="728" 
d="M673 0h-647v98h91v585h-91v99h647v-239h-121v140h-288v-239h117v102h103v-298h-103v100h-117v-250h288v150h121v-248zM379 822h-60l-142 109v13h114z" />
    <glyph glyph-name="Eacute" unicode="&#xc9;" horiz-adv-x="728" 
d="M673 0h-647v98h91v585h-91v99h647v-239h-121v140h-288v-239h117v102h103v-298h-103v100h-117v-250h288v150h121v-248zM520 931l-142 -109h-60l88 122h114v-13z" />
    <glyph glyph-name="Ecircumflex" unicode="&#xca;" horiz-adv-x="728" 
d="M673 0h-647v98h91v585h-91v99h647v-239h-121v140h-288v-239h117v102h103v-298h-103v100h-117v-250h288v150h121v-248zM500 801h-84l-68 53l-69 -53h-83v6l101 98h103l100 -98v-6z" />
    <glyph glyph-name="Edieresis" unicode="&#xcb;" horiz-adv-x="628" 
d="M598 291q1 -135 -73 -218q-77 -87 -210 -88q-135 -1 -212 89q-73 86 -73 223t76 219.5t212 83.5q134 1 209 -89q70 -83 71 -220zM444 297q0 81 -25 134q-33 71 -105 72t-106 -73q-26 -55 -26 -136q0 -80 25 -136q34 -75 104 -76q133 -1 133 215zM470 620h-84l-68 53
l-69 -53h-83v6l101 98h103l100 -98v-6zM644 782l-142 -109h-60l88 122h114v-13z" />
    <glyph glyph-name="Igrave" unicode="&#xcc;" horiz-adv-x="386" 
d="M364 0h-342v97h95v586h-95v99h342v-99h-94v-586h94v-97zM224 822h-60l-142 109v13h114z" />
    <glyph glyph-name="Iacute" unicode="&#xcd;" horiz-adv-x="386" 
d="M364 0h-342v97h95v586h-95v99h342v-99h-94v-586h94v-97zM366 931l-142 -109h-60l88 122h114v-13z" />
    <glyph glyph-name="Icircumflex" unicode="&#xce;" horiz-adv-x="628" 
d="M444 297q0 81 -25 134q-33 71 -105 72t-106 -73q-26 -55 -26 -136q0 -80 25 -136q34 -75 104 -76q133 -1 133 215zM446 573q41 10 40 27q0 4 -8.5 14t-8.5 21q0 16 14 27t30 11q19 0 30 -16.5t9 -35.5q-3 -31 -32 -46q-25 -13 -58 -11q135 -81 136 -273q1 -135 -73 -218
q-77 -87 -210 -88q-135 -1 -212 89q-73 86 -73 223q0 138 76 220t212 83q71 1 128 -27zM402 755q0 -39 -29 -66l-13 -12q-3 -3 -15 -20q-2 -6 -4 -27h-49q0 5 -1 9q0 33 24 57l14 14q18 18 19 43q1 32 -27 32q-27 0 -31 -36l-42 5q6 68 78 68q76 0 76 -67z" />
    <glyph glyph-name="Idieresis" unicode="&#xcf;" horiz-adv-x="628" 
d="M444 297q0 81 -25 134q-33 71 -105 72t-106 -73q-26 -55 -26 -136q0 -80 25 -136q34 -75 104 -76q133 -1 133 215zM446 573q41 10 40 27q0 4 -8.5 14t-8.5 21q0 16 14 27t30 11q19 0 30 -16.5t9 -35.5q-3 -31 -32 -46q-25 -13 -58 -11q135 -81 136 -273q1 -135 -73 -218
q-77 -87 -210 -88q-135 -1 -212 89q-73 86 -73 223q0 138 76 220t212 83q71 1 128 -27zM465 727q-11 -38 -40.5 -62.5t-68.5 -24.5q-17 0 -63 30q-11 7 -31 8q-31 1 -46 -31l-44 2q13 37 43.5 62.5t67.5 25.5q23 -4 39 -12q10 -7 31 -21q6 -3 24 -7q24 -2 47 32z" />
    <glyph glyph-name="Eth" unicode="&#xd0;" horiz-adv-x="811" 
d="M768 393q1 -188 -98.5 -290.5t-286.5 -102.5h-313v340h-75v125h75v317h318q179 0 279 -104.5t101 -284.5zM602 394q0 118 -63 185t-180 67h-126v-181h105v-125h-105v-204h136q233 0 233 258z" />
    <glyph glyph-name="Ntilde" unicode="&#xd1;" 
d="M833 0h-316v98h94l-50 142h-290l-49 -142h93v-98h-297v98h62l258 684h179l254 -684h62v-98zM523 335l-107 322l-108 -322h215zM476 -118h-119v116h119v-116z" />
    <glyph glyph-name="Ograve" unicode="&#xd2;" 
d="M803 400q0 -188 -92 -299q-100 -119 -284 -120t-283 117q-93 110 -94 297q-1 184 93 294q100 116 280 117q181 1 283 -113q97 -110 97 -293zM640 391q0 317 -216 317q-116 0 -170 -103q-41 -79 -42 -207q-1 -130 40 -211q53 -105 171 -106q119 -1 174 101q43 79 43 209z
M453 846h-60l-142 109v13h114z" />
    <glyph glyph-name="Oacute" unicode="&#xd3;" 
d="M803 400q0 -188 -92 -299q-100 -119 -284 -120t-283 117q-93 110 -94 297q-1 184 93 294q100 116 280 117q181 1 283 -113q97 -110 97 -293zM640 391q0 317 -216 317q-116 0 -170 -103q-41 -79 -42 -207q-1 -130 40 -211q53 -105 171 -106q119 -1 174 101q43 79 43 209z
M595 955l-142 -109h-60l88 122h114v-13z" />
    <glyph glyph-name="Ocircumflex" unicode="&#xd4;" 
d="M803 400q0 -188 -92 -299q-100 -119 -284 -120t-283 117q-93 110 -94 297q-1 184 93 294q100 116 280 117q181 1 283 -113q97 -110 97 -293zM640 391q0 317 -216 317q-116 0 -170 -103q-41 -79 -42 -207q-1 -130 40 -211q53 -105 171 -106q119 -1 174 101q43 79 43 209z
M575 822h-84l-68 53l-69 -53h-83v6l101 98h103l100 -98v-6z" />
    <glyph glyph-name="Otilde" unicode="&#xd5;" 
d="M803 400q0 -188 -92 -299q-100 -119 -284 -120t-283 117q-93 110 -94 297q-1 184 93 294q100 116 280 117q181 1 283 -113q97 -110 97 -293zM640 391q0 317 -216 317q-116 0 -170 -103q-41 -79 -42 -207q-1 -130 40 -211q53 -105 171 -106q119 -1 174 101q43 79 43 209z
M570 929q-11 -38 -40.5 -62.5t-68.5 -24.5q-17 0 -63 30q-11 7 -31 8q-31 1 -46 -31l-44 2q13 37 43.5 62.5t67.5 25.5q23 -4 39 -12q10 -7 31 -21q6 -3 24 -7q24 -2 47 32z" />
    <glyph glyph-name="Odieresis" unicode="&#xd6;" 
d="M580 906q-49 -77 -93 -92q-31 -11 -59 -11q-26 0 -56 10q-48 16 -96 93v6h68q32 -48 84 -48q56 0 83 48h69v-6zM833 0h-316v98h94l-50 142h-290l-49 -142h93v-98h-297v98h62l258 684h179l254 -684h62v-98zM523 335l-107 322l-108 -322h215zM476 -118h-119v116h119v-116z
" />
    <glyph glyph-name="Oslash" unicode="&#xd8;" 
d="M580 906q-49 -77 -93 -92q-31 -11 -59 -11q-26 0 -56 10q-48 16 -96 93v6h68q32 -48 84 -48q56 0 83 48h69v-6zM833 0h-316v98h94l-50 142h-290l-49 -142h93v-98h-297v98h62l258 684h179l254 -684h62v-98zM523 335l-107 322l-108 -322h215zM458 912h-60l-142 109v13h114z
" />
    <glyph glyph-name="Ugrave" unicode="&#xd9;" horiz-adv-x="791" 
d="M775 681h-79v-390q0 -308 -305 -310q-196 -1 -266 146q-30 63 -30 136v418h-77v98h325v-98h-97v-395q0 -79 17 -116q39 -85 141 -86q154 -2 154 202v395h-95v98h312v-98zM432 802h-60l-142 109v13h114z" />
    <glyph glyph-name="Uacute" unicode="&#xda;" horiz-adv-x="791" 
d="M775 681h-79v-390q0 -308 -305 -310q-196 -1 -266 146q-30 63 -30 136v418h-77v98h325v-98h-97v-395q0 -79 17 -116q39 -85 141 -86q154 -2 154 202v395h-95v98h312v-98zM575 911l-142 -109h-60l88 122h114v-13z" />
    <glyph glyph-name="Ucircumflex" unicode="&#xdb;" horiz-adv-x="689" 
d="M657 0h-212v104q-35 -116 -174 -116q-110 0 -155 83q-21 39 -21 117v302h-75v92h223v-368q0 -120 85 -121q107 -1 107 170v227h-79v92h226v-488h75v-94zM512 729l-142 -109h-60l88 122h114v-13z" />
    <glyph glyph-name="Udieresis" unicode="&#xdc;" 
d="M833 0h-316v98h94l-50 142h-290l-49 -142h93v-98h-297v98h62l258 684h179l254 -684h62v-98zM523 335l-107 322l-108 -322h215zM580 792h-84l-68 53l-69 -53h-83v6l101 98h103l100 -98v-6zM476 -118h-119v116h119v-116z" />
    <glyph glyph-name="Yacute" unicode="&#xdd;" horiz-adv-x="750" 
d="M586 996l-184 -151h-104l126 151h162zM735 682h-52l-234 -380v-205h110v-97h-368v97h109v205l-233 380h-51v99h311v-99h-86l142 -250l147 250h-81v99h286v-99z" />
    <glyph glyph-name="Thorn" unicode="&#xde;" horiz-adv-x="677" 
d="M642 284q1 -125 -57 -208q-65 -94 -185 -95q-127 -1 -186 109v-278h-146v970h141v-320q74 116 188 116q119 0 185 -91q59 -80 60 -203zM496 273q0 77 -32 126q-37 58 -110 59q-74 1 -111 -61q-30 -50 -31 -129q-1 -73 33 -121q38 -54 108 -56q71 -2 110 57q33 50 33 125z
" />
    <glyph glyph-name="germandbls" unicode="&#xdf;" horiz-adv-x="811" 
d="M768 393q1 -188 -98.5 -290.5t-286.5 -102.5h-313v340h-75v125h75v317h318q179 0 279 -104.5t101 -284.5zM602 394q0 118 -63 185t-180 67h-126v-181h105v-125h-105v-204h136q233 0 233 258z" />
    <glyph glyph-name="agrave" unicode="&#xe0;" horiz-adv-x="628" 
d="M606 0h-200v100q-46 -109 -184 -111q-83 -1 -134 45.5t-52 128.5q-2 120 101 166q59 26 172 27q22 0 80 -2q0 15 1 26q0 132 -95 132q-88 0 -92 -104h-146q10 191 238 192q121 1 178 -55t57 -176v-275h76v-94zM393 265v7h-7l-43 1q-75 2 -111 -16q-49 -25 -50 -92
q-1 -81 81 -82q71 -1 105 69q25 51 25 113zM325 640h-60l-142 109v13h114z" />
    <glyph glyph-name="aacute" unicode="&#xe1;" horiz-adv-x="628" 
d="M606 0h-200v100q-46 -109 -184 -111q-83 -1 -134 45.5t-52 128.5q-2 120 101 166q59 26 172 27q22 0 80 -2q0 15 1 26q0 132 -95 132q-88 0 -92 -104h-146q10 191 238 192q121 1 178 -55t57 -176v-275h76v-94zM393 265v7h-7l-43 1q-75 2 -111 -16q-49 -25 -50 -92
q-1 -81 81 -82q71 -1 105 69q25 51 25 113zM467 749l-142 -109h-60l88 122h114v-13z" />
    <glyph glyph-name="acircumflex" unicode="&#xe2;" horiz-adv-x="628" 
d="M606 0h-200v100q-46 -109 -184 -111q-83 -1 -134 45.5t-52 128.5q-2 120 101 166q59 26 172 27q22 0 80 -2q0 15 1 26q0 132 -95 132q-88 0 -92 -104h-146q10 191 238 192q121 1 178 -55t57 -176v-275h76v-94zM393 265v7h-7l-43 1q-75 2 -111 -16q-49 -25 -50 -92
q-1 -81 81 -82q71 -1 105 69q25 51 25 113zM445 619h-84l-68 53l-69 -53h-83v6l101 98h103l100 -98v-6z" />
    <glyph glyph-name="atilde" unicode="&#xe3;" horiz-adv-x="628" 
d="M606 0h-200v100q-46 -109 -184 -111q-83 -1 -134 45.5t-52 128.5q-2 120 101 166q59 26 172 27q22 0 80 -2q0 15 1 26q0 132 -95 132q-88 0 -92 -104h-146q10 191 238 192q121 1 178 -55t57 -176v-275h76v-94zM393 265v7h-7l-43 1q-75 2 -111 -16q-49 -25 -50 -92
q-1 -81 81 -82q71 -1 105 69q25 51 25 113zM440 727q-11 -38 -40.5 -62.5t-68.5 -24.5q-17 0 -63 30q-11 7 -31 8q-31 1 -46 -31l-44 2q13 37 43.5 62.5t67.5 25.5q23 -4 39 -12q10 -7 31 -21q6 -3 24 -7q24 -2 47 32z" />
    <glyph glyph-name="adieresis" unicode="&#xe4;" horiz-adv-x="608" 
d="M575 286q0 -17 -1 -26h-388q10 -183 132 -183q83 0 110 96h139q-13 -94 -85 -145q-64 -45 -164 -46q-135 -2 -209 90q-69 84 -69 222q0 136 65 217q71 88 204 88q265 0 266 -313zM428 345q0 62 -27 108q-31 54 -89 56q-63 2 -101 -71q-20 -39 -22 -93h239zM481 749
l-142 -109h-60l88 122h114v-13z" />
    <glyph glyph-name="aring" unicode="&#xe5;" horiz-adv-x="728" 
d="M673 0h-647v98h91v585h-91v99h647v-239h-121v140h-288v-239h117v102h103v-298h-103v100h-117v-250h288v150h121v-248zM500 801h-84l-68 53l-69 -53h-83v6l101 98h103l100 -98v-6zM409 -156h-119v116h119v-116z" />
    <glyph glyph-name="ae" unicode="&#xe6;" horiz-adv-x="628" 
d="M606 0h-200v100q-46 -109 -184 -111q-83 -1 -134 45.5t-52 128.5q-2 120 101 166q59 26 172 27q22 0 80 -2q0 15 1 26q0 132 -95 132q-88 0 -92 -104h-146q10 191 238 192q121 1 178 -55t57 -176v-275h76v-94zM393 265v7h-7l-43 1q-75 2 -111 -16q-49 -25 -50 -92
q-1 -81 81 -82q71 -1 105 69q25 51 25 113zM445 733q-49 -77 -93 -92q-31 -11 -59 -11q-26 0 -56 10q-48 16 -96 93v6h68q32 -48 84 -48q56 0 83 48h69v-6zM465 848l-143 -109h-59l88 122h114v-13z" />
    <glyph glyph-name="ccedilla" unicode="&#xe7;" horiz-adv-x="386" 
d="M364 0h-342v97h95v586h-95v99h342v-99h-94v-586h94v-97zM224 822h-60l-142 109v13h114z" />
    <glyph glyph-name="egrave" unicode="&#xe8;" horiz-adv-x="608" 
d="M575 286q0 -17 -1 -26h-388q10 -183 132 -183q83 0 110 96h139q-13 -94 -85 -145q-64 -45 -164 -46q-135 -2 -209 90q-69 84 -69 222q0 136 65 217q71 88 204 88q265 0 266 -313zM428 345q0 62 -27 108q-31 54 -89 56q-63 2 -101 -71q-20 -39 -22 -93h239zM339 640h-60
l-142 109v13h114z" />
    <glyph glyph-name="eacute" unicode="&#xe9;" horiz-adv-x="608" 
d="M575 286q0 -17 -1 -26h-388q10 -183 132 -183q83 0 110 96h139q-13 -94 -85 -145q-64 -45 -164 -46q-135 -2 -209 90q-69 84 -69 222q0 136 65 217q71 88 204 88q265 0 266 -313zM428 345q0 62 -27 108q-31 54 -89 56q-63 2 -101 -71q-20 -39 -22 -93h239zM481 749
l-142 -109h-60l88 122h114v-13z" />
    <glyph glyph-name="ecircumflex" unicode="&#xea;" horiz-adv-x="608" 
d="M575 286q0 -17 -1 -26h-388q10 -183 132 -183q83 0 110 96h139q-13 -94 -85 -145q-64 -45 -164 -46q-135 -2 -209 90q-69 84 -69 222q0 136 65 217q71 88 204 88q265 0 266 -313zM428 345q0 62 -27 108q-31 54 -89 56q-63 2 -101 -71q-20 -39 -22 -93h239zM461 620h-84
l-68 53l-69 -53h-83v6l101 98h103l100 -98v-6z" />
    <glyph glyph-name="edieresis" unicode="&#xeb;" horiz-adv-x="386" 
d="M364 0h-342v97h95v586h-95v99h342v-99h-94v-586h94v-97zM254 -156h-119v116h119v-116z" />
    <glyph glyph-name="igrave" unicode="&#xec;" horiz-adv-x="364" 
d="M333 0h-292v93h76v397h-76v92h225v-489h67v-93zM220 622h-60l-142 109v13h114z" />
    <glyph glyph-name="iacute" unicode="&#xed;" horiz-adv-x="364" 
d="M333 0h-292v93h76v397h-76v92h225v-489h67v-93zM362 731l-142 -109h-60l88 122h114v-13z" />
    <glyph glyph-name="icircumflex" unicode="&#xee;" 
d="M803 400q0 -188 -92 -299q-100 -119 -284 -120t-283 117q-93 110 -94 297q-1 184 93 294q100 116 280 117q181 1 283 -113q97 -110 97 -293zM640 391q0 317 -216 317q-116 0 -170 -103q-41 -79 -42 -207q-1 -130 40 -211q53 -105 171 -106q119 -1 174 101q43 79 43 209z
M570 929q-11 -38 -40.5 -62.5t-68.5 -24.5q-17 0 -63 30q-11 7 -31 8q-31 1 -46 -31l-44 2q13 37 43.5 62.5t67.5 25.5q23 -4 39 -12q10 -7 31 -21q6 -3 24 -7q24 -2 47 32z" />
    <glyph glyph-name="idieresis" unicode="&#xef;" 
d="M803 400q0 -188 -92 -299q-100 -119 -284 -120t-283 117q-93 110 -94 297q-1 184 93 294q100 116 280 117q181 1 283 -113q97 -110 97 -293zM640 391q0 317 -216 317q-116 0 -170 -103q-41 -79 -42 -207q-1 -130 40 -211q53 -105 171 -106q119 -1 174 101q43 79 43 209z
M595 955l-142 -109h-60l88 122h114v-13z" />
    <glyph glyph-name="eth" unicode="&#xf0;" horiz-adv-x="646" 
d="M612 298q0 -139 -76 -225q-80 -89 -217 -91q-129 -1 -208 87q-75 84 -76 215q-1 143 100 221q33 26 117 51q7 -1 90 -9q10 0 34 -9q-55 83 -119 129l-122 -85l-32 49l101 66q-57 30 -121 46l22 52q9 0 94 -24q53 -15 76 -27l128 88l32 -48l-97 -66q115 -66 172 -133
q102 -121 102 -287zM463 287q0 190 -130 191q-76 1 -115 -63q-33 -53 -34 -134q-1 -80 28 -131q36 -64 110 -64q141 0 141 201z" />
    <glyph glyph-name="ntilde" unicode="&#xf1;" 
d="M803 400q0 -188 -92 -299q-100 -119 -284 -120t-283 117q-93 110 -94 297q-1 184 93 294q100 116 280 117q181 1 283 -113q97 -110 97 -293zM640 391q0 317 -216 317q-116 0 -170 -103q-41 -79 -42 -207q-1 -130 40 -211q53 -105 171 -106q119 -1 174 101q43 79 43 209z
M487 -175h-119v116h119v-116z" />
    <glyph glyph-name="ograve" unicode="&#xf2;" horiz-adv-x="628" 
d="M598 291q1 -135 -73 -218q-77 -87 -210 -88q-135 -1 -212 89q-73 86 -73 223t76 219.5t212 83.5q134 1 209 -89q70 -83 71 -220zM444 297q0 81 -25 134q-33 71 -105 72t-106 -73q-26 -55 -26 -136q0 -80 25 -136q34 -75 104 -76q133 -1 133 215zM348 640h-60l-142 109v13
h114z" />
    <glyph glyph-name="oacute" unicode="&#xf3;" horiz-adv-x="628" 
d="M598 291q1 -135 -73 -218q-77 -87 -210 -88q-135 -1 -212 89q-73 86 -73 223t76 219.5t212 83.5q134 1 209 -89q70 -83 71 -220zM444 297q0 81 -25 134q-33 71 -105 72t-106 -73q-26 -55 -26 -136q0 -80 25 -136q34 -75 104 -76q133 -1 133 215zM490 749l-142 -109h-60
l88 122h114v-13z" />
    <glyph glyph-name="ocircumflex" unicode="&#xf4;" horiz-adv-x="628" 
d="M598 291q1 -135 -73 -218q-77 -87 -210 -88q-135 -1 -212 89q-73 86 -73 223t76 219.5t212 83.5q134 1 209 -89q70 -83 71 -220zM444 297q0 81 -25 134q-33 71 -105 72t-106 -73q-26 -55 -26 -136q0 -80 25 -136q34 -75 104 -76q133 -1 133 215zM470 620h-84l-68 53
l-69 -53h-83v6l101 98h103l100 -98v-6z" />
    <glyph glyph-name="otilde" unicode="&#xf5;" horiz-adv-x="628" 
d="M598 291q1 -135 -73 -218q-77 -87 -210 -88q-135 -1 -212 89q-73 86 -73 223t76 219.5t212 83.5q134 1 209 -89q70 -83 71 -220zM444 297q0 81 -25 134q-33 71 -105 72t-106 -73q-26 -55 -26 -136q0 -80 25 -136q34 -75 104 -76q133 -1 133 215zM465 727
q-11 -38 -40.5 -62.5t-68.5 -24.5q-17 0 -63 30q-11 7 -31 8q-31 1 -46 -31l-44 2q13 37 43.5 62.5t67.5 25.5q23 -4 39 -12q10 -7 31 -21q6 -3 24 -7q24 -2 47 32z" />
    <glyph glyph-name="odieresis" unicode="&#xf6;" 
d="M640 391q0 317 -216 317q-116 0 -170 -103q-41 -79 -42 -207q-1 -130 40 -211q53 -105 171 -106q119 -1 174 101q43 79 43 209zM664 731q36 24 36 42q0 8 -19 20t-19 33q0 20 15.5 36.5t35.5 16.5q24 0 40.5 -19.5t16.5 -44.5q0 -35 -32 -61q-27 -22 -65 -31
q130 -104 130 -323q0 -188 -92 -299q-100 -119 -284 -120t-283 117q-93 110 -94 297q-1 184 93 294q99 116 280 117q146 1 241 -75zM570 929q-11 -38 -40.5 -62.5t-68.5 -24.5q-17 0 -63 30q-11 7 -31 8q-31 1 -46 -31l-44 2q13 37 43.5 62.5t67.5 25.5q23 -4 39 -12
q10 -7 31 -21q6 -3 24 -7q24 -2 47 32z" />
    <glyph glyph-name="divide" unicode="&#xf7;" horiz-adv-x="608" 
d="M575 286q0 -17 -1 -26h-388q10 -183 132 -183q83 0 110 96h139q-13 -94 -85 -145q-64 -45 -164 -46q-135 -2 -209 90q-69 84 -69 222q0 136 65 217q71 88 204 88q265 0 266 -313zM428 345q0 62 -27 108q-31 54 -89 56q-63 2 -101 -71q-20 -39 -22 -93h239zM461 620h-84
l-68 53l-69 -53h-83v6l101 98h103l100 -98v-6zM378 -174h-119v116h119v-116z" />
    <glyph glyph-name="oslash" unicode="&#xf8;" 
d="M580 906q-49 -77 -93 -92q-31 -11 -59 -11q-26 0 -56 10q-48 16 -96 93v6h68q32 -48 84 -48q56 0 83 48h69v-6zM833 0h-316v98h94l-50 142h-290l-49 -142h93v-98h-297v98h62l258 684h179l254 -684h62v-98zM523 335l-107 322l-108 -322h215zM699 1019q-11 -38 -40.5 -62.5
t-68.5 -24.5q-17 0 -63 30q-11 7 -31 8q-31 1 -46 -31l-44 2q13 37 43.5 62.5t67.5 25.5q23 -4 39 -12q10 -7 31 -21q6 -3 24 -7q24 -2 47 32z" />
    <glyph glyph-name="ugrave" unicode="&#xf9;" horiz-adv-x="689" 
d="M657 0h-212v104q-35 -116 -174 -116q-110 0 -155 83q-21 39 -21 117v302h-75v92h223v-368q0 -120 85 -121q107 -1 107 170v227h-79v92h226v-488h75v-94zM369 620h-60l-142 109v13h114z" />
    <glyph glyph-name="uacute" unicode="&#xfa;" horiz-adv-x="689" 
d="M657 0h-212v104q-35 -116 -174 -116q-110 0 -155 83q-21 39 -21 117v302h-75v92h223v-368q0 -120 85 -121q107 -1 107 170v227h-79v92h226v-488h75v-94zM512 729l-142 -109h-60l88 122h114v-13z" />
    <glyph glyph-name="ucircumflex" unicode="&#xfb;" horiz-adv-x="791" 
d="M775 681h-79v-390q0 -308 -305 -310q-196 -1 -266 146q-30 63 -30 136v418h-77v98h325v-98h-97v-395q0 -79 17 -116q39 -85 141 -86q154 -2 154 202v395h-95v98h312v-98zM487 917q0 -39 -29 -66l-13 -12q-3 -3 -15 -20q-2 -6 -4 -27h-49q0 5 -1 9q0 33 24 57l14 14
q18 18 19 43q1 32 -27 32q-27 0 -31 -36l-42 5q6 68 78 68q76 0 76 -67z" />
    <glyph glyph-name="udieresis" unicode="&#xfc;" horiz-adv-x="791" 
d="M775 681h-79v-390q0 -308 -305 -310q-196 -1 -266 146q-30 63 -30 136v418h-77v98h325v-98h-97v-395q0 -79 17 -116q39 -85 141 -86q154 -2 154 202v395h-95v98h312v-98zM549 889q-11 -38 -40.5 -62.5t-68.5 -24.5q-17 0 -63 30q-11 7 -31 8q-31 1 -46 -31l-44 2
q13 37 43.5 62.5t67.5 25.5q23 -4 39 -12q10 -7 31 -21q6 -3 24 -7q24 -2 47 32z" />
    <glyph glyph-name="yacute" unicode="&#xfd;" horiz-adv-x="648" 
d="M634 490h-43l-215 -539q-31 -78 -65 -107q-40 -35 -118 -36q-59 -1 -78 6v102q31 -5 56 -6q32 -1 46 9q13 7 29 40l17 34l-201 497h-46v91h279v-91h-75l75 -196q17 -28 44 -142q11 63 37 136l72 202h-72v91h258v-91zM508 709l-142 -109h-60l88 122h114v-13z" />
    <glyph glyph-name="thorn" unicode="&#xfe;" horiz-adv-x="586" 
d="M571 377h-557v78h557v-78z" />
    <glyph glyph-name="ydieresis" unicode="&#xff;" horiz-adv-x="364" 
d="M333 0h-292v93h76v397h-76v92h225v-489h67v-93zM274 737q0 -39 -29 -66l-13 -12q-3 -3 -15 -20q-2 -6 -4 -27h-49q0 5 -1 9q0 33 24 57l14 14q18 18 19 43q1 32 -27 32q-27 0 -31 -36l-42 5q6 68 78 68q76 0 76 -67z" />
    <glyph glyph-name="glyph271" unicode="&#x102;" 
d="M580 906q-49 -77 -93 -92q-31 -11 -59 -11q-26 0 -56 10q-48 16 -96 93v6h68q32 -48 84 -48q56 0 83 48h69v-6zM833 0h-316v98h94l-50 142h-290l-49 -142h93v-98h-297v98h62l258 684h179l254 -684h62v-98zM523 335l-107 322l-108 -322h215z" />
    <glyph glyph-name="glyph272" unicode="&#x103;" horiz-adv-x="628" 
d="M606 0h-200v100q-46 -109 -184 -111q-83 -1 -134 45.5t-52 128.5q-2 120 101 166q59 26 172 27q22 0 80 -2q0 15 1 26q0 132 -95 132q-88 0 -92 -104h-146q10 191 238 192q121 1 178 -55t57 -176v-275h76v-94zM393 265v7h-7l-43 1q-75 2 -111 -16q-49 -25 -50 -92
q-1 -81 81 -82q71 -1 105 69q25 51 25 113zM445 733q-49 -77 -93 -92q-31 -11 -59 -11q-26 0 -56 10q-48 16 -96 93v6h68q32 -48 84 -48q56 0 83 48h69v-6z" />
    <glyph glyph-name="Cacute" unicode="&#x106;" horiz-adv-x="833" 
d="M744 261q-6 -135 -97 -207q-84 -67 -222 -68q-185 -1 -282 113q-91 107 -91 295q0 177 78 283q88 119 259 120q157 1 222 -103v88h124v-280h-135q-11 191 -178 192q-115 1 -168 -102q-40 -78 -40 -205q0 -297 207 -298q153 -1 167 172h156zM805 590q1 -135 -73 -218
q-77 -87 -210 -88q-135 -1 -212 89q-73 86 -73 223t76 219.5t212 83.5q134 1 209 -89q70 -83 71 -220zM651 596q0 81 -25 134q-33 71 -105 72t-106 -73q-26 -55 -26 -136q0 -80 25 -136q34 -75 104 -76q133 -1 133 215zM677 919h-84l-68 53l-69 -53h-83v6l101 98h103
l100 -98v-6z" />
    <glyph glyph-name="cacute" unicode="&#x107;" horiz-adv-x="517" 
d="M550 195q-6 -100 -71.5 -155t-167.5 -55q-137 0 -210 91q-67 83 -67 223q0 124 61 205q67 90 187 91q117 1 153 -83v68h111v-218h-118q-12 134 -112 134q-125 0 -127 -196q-1 -85 22 -140q32 -78 105 -79q85 -1 107 114h127zM572 291q1 -135 -73 -218q-77 -87 -210 -88
q-135 -1 -212 89q-73 86 -73 223t76 219.5t212 83.5q134 1 209 -89q70 -83 71 -220zM418 297q0 81 -25 134q-33 71 -105 72t-106 -73q-26 -55 -26 -136q0 -80 25 -136q34 -75 104 -76q133 -1 133 215zM444 620h-84l-68 53l-69 -53h-83v6l101 98h103l100 -98v-6z" />
    <glyph glyph-name="Ccaron" unicode="&#x10c;" horiz-adv-x="833" 
d="M744 261q-6 -135 -97 -207q-84 -67 -222 -68q-185 -1 -282 113q-91 107 -91 295q0 177 78 283q88 119 259 120q157 1 222 -103v88h124v-280h-135q-11 191 -178 192q-115 1 -168 -102q-40 -78 -40 -205q0 -297 207 -298q153 -1 167 172h156zM1010 699q0 -188 -92 -299
q-100 -119 -284 -120t-283 117q-93 110 -94 297q-1 184 93 294q100 116 280 117q181 1 283 -113q97 -110 97 -293zM847 690q0 317 -216 317q-116 0 -170 -103q-41 -79 -42 -207q-1 -130 40 -211q53 -105 171 -106q119 -1 174 101q43 79 43 209zM782 1121h-84l-68 53l-69 -53
h-83v6l101 98h103l100 -98v-6zM956 1283l-142 -109h-60l88 122h114v-13z" />
    <glyph glyph-name="ccaron" unicode="&#x10d;" horiz-adv-x="517" 
d="M550 195q-6 -100 -71.5 -155t-167.5 -55q-137 0 -210 91q-67 83 -67 223q0 124 61 205q67 90 187 91q117 1 153 -83v68h111v-218h-118q-12 134 -112 134q-125 0 -127 -196q-1 -85 22 -140q32 -78 105 -79q85 -1 107 114h127zM777 400q0 -188 -92 -299
q-100 -119 -284 -120t-283 117q-93 110 -94 297q-1 184 93 294q100 116 280 117q181 1 283 -113q97 -110 97 -293zM614 391q0 317 -216 317q-116 0 -170 -103q-41 -79 -42 -207q-1 -130 40 -211q53 -105 171 -106q119 -1 174 101q43 79 43 209zM549 822h-84l-68 53l-69 -53
h-83v6l101 98h103l100 -98v-6zM723 984l-142 -109h-60l88 122h114v-13z" />
    <glyph glyph-name="Dslash" unicode="&#x110;" horiz-adv-x="811" 
d="M768 393q1 -188 -98.5 -290.5t-286.5 -102.5h-313v340h-75v125h75v317h318q179 0 279 -104.5t101 -284.5zM602 394q0 118 -63 185t-180 67h-126v-181h105v-125h-105v-204h136q233 0 233 258z" />
    <glyph glyph-name="dcroat" unicode="&#x111;" horiz-adv-x="689" 
d="M447 289q1 78 -26 135q-35 74 -105 74q-127 0 -127 -207q0 -205 126 -207q69 -1 105 72q26 55 27 133zM442 600h-126v72h126v29h-79v92h225v-121h40v-72h-40v-507h77v-93h-214v105q-32 -116 -183 -117q-122 -1 -181 95q-48 78 -48 208q0 302 234 303q128 1 169 -97v103z
" />
    <glyph glyph-name="Gbreve" unicode="&#x11e;" horiz-adv-x="899" 
d="M826 294h-77v-294h-129v95q-53 -106 -222 -107q-171 -1 -263 118q-84 107 -85 283t82 284q92 118 263 119q166 1 218 -101v88h127v-274h-134q-3 83 -51.5 131.5t-131.5 49.5q-109 2 -163 -96q-43 -77 -44 -195q-1 -126 43 -203q54 -96 171 -97q85 -1 134 58q46 54 49 141
h-101v97h314v-97zM812 863v-470h75v-94h-212v104q-35 -116 -174 -116q-110 0 -155 83q-21 39 -21 117v302h-75v92h223v-368q0 -120 85 -121q107 -1 107 170v227h-79v92h226q14 7 14 18q0 4 -8.5 14t-8.5 21q0 16 14 27t30 11q19 0 30 -16.5t9 -35.5q-6 -57 -80 -57zM630 131
h-119v116h119v-116z" />
    <glyph glyph-name="gbreve" unicode="&#x11f;" horiz-adv-x="577" 
d="M666 490h-76v-462q0 -219 -269 -219q-155 0 -214 63q-39 41 -37 92h147q21 -64 96 -65q50 -1 88 27q42 30 42 78v29q0 23 4 75q-43 -102 -173 -102q-122 0 -183 90q-52 77 -53 205q-1 125 52 204q61 91 180 92q138 2 182 -124v109h214v-92zM447 299q0 74 -29 130
q-35 71 -103 71q-67 0 -100 -66q-25 -51 -26 -126q-1 -79 23 -133q32 -73 101 -74q73 -1 107 66q27 52 27 132zM577 564v-470h75v-94h-212v104q-35 -116 -174 -116q-110 0 -155 83q-21 39 -21 117v302h-75v92h223v-368q0 -120 85 -121q107 -1 107 170v227h-79v92h226
q14 7 14 18q0 4 -8.5 14t-8.5 21q0 16 14 27t30 11q19 0 30 -16.5t9 -35.5q-6 -57 -80 -57zM395 -168h-119v116h119v-116z" />
    <glyph glyph-name="glyph273" unicode="&#x128;" horiz-adv-x="386" 
d="M364 0h-342v97h95v586h-95v99h342v-99h-94v-586h94v-97zM341 909q-11 -38 -40.5 -62.5t-68.5 -24.5q-17 0 -63 30q-11 7 -31 8q-31 1 -46 -31l-44 2q13 37 43.5 62.5t67.5 25.5q25 -4 39 -12q7 -4 31 -21q6 -3 24 -7q24 -2 47 32z" />
    <glyph glyph-name="glyph274" unicode="&#x129;" horiz-adv-x="364" 
d="M333 0h-292v93h76v397h-76v92h225v-489h67v-93zM336 709q-11 -38 -40.5 -62.5t-68.5 -24.5q-17 0 -63 30q-11 7 -31 8q-31 1 -46 -31l-44 2q13 37 43.5 62.5t67.5 25.5q23 -4 39 -12q10 -7 31 -21q6 -3 24 -7q24 -2 47 32z" />
    <glyph glyph-name="Idotaccent" unicode="&#x130;" horiz-adv-x="503" 
d="M364 0h-342v97h95v586h-95v99h342v-99h-94v-586h94v-97zM666 789h-43l-215 -539q-31 -78 -65 -107q-40 -35 -118 -36q-59 -1 -78 6v102q31 -5 56 -6q32 -1 46 9q13 7 29 40l17 34l-201 497h-46v91h279v-91h-75l75 -196q17 -28 44 -142q11 63 37 136l72 202h-72v91h258
v-91zM397 899h-60l-142 109v13h114z" />
    <glyph glyph-name="dotlessi" unicode="&#x131;" horiz-adv-x="689" 
d="M582 564v-470h75v-94h-212v104q-35 -116 -174 -116q-110 0 -155 83q-21 39 -21 117v302h-75v92h223v-368q0 -120 85 -121q107 -1 107 170v227h-79v92h226q14 7 14 18q0 4 -8.5 14t-8.5 21q0 16 14 27t30 11q19 0 30 -16.5t9 -35.5q-6 -57 -80 -57zM369 620h-60l-142 109
v13h114z" />
    <glyph glyph-name="Lslash" unicode="&#x141;" horiz-adv-x="618" 
d="M621 0h-550v319l-70 -51v116l70 51v347h163v-249l143 103v-116l-143 -103v-278h387v-139z" />
    <glyph glyph-name="lslash" unicode="&#x142;" horiz-adv-x="282" 
d="M292 466l-74 -53v-413h-149v325l-68 -48v102l68 48v355h149v-267l74 53v-102z" />
    <glyph glyph-name="OE" unicode="&#x152;" horiz-adv-x="608" 
d="M575 286q0 -17 -1 -26h-388q10 -183 132 -183q83 0 110 96h139q-13 -94 -85 -145q-64 -45 -164 -46q-135 -2 -209 90q-69 84 -69 222q0 136 65 217q71 88 204 88q265 0 266 -313zM428 345q0 62 -27 108q-31 54 -89 56q-63 2 -101 -71q-20 -39 -22 -93h239zM393 755
q0 -39 -29 -66l-13 -12q-3 -3 -15 -20q-2 -6 -4 -27h-49q0 5 -1 9q0 33 24 57l14 14q18 18 19 43q1 32 -27 32q-27 0 -31 -36l-42 5q6 68 78 68q76 0 76 -67z" />
    <glyph glyph-name="oe" unicode="&#x153;" horiz-adv-x="608" 
d="M575 286q0 -17 -1 -26h-388q10 -183 132 -183q83 0 110 96h139q-13 -94 -85 -145q-64 -45 -164 -46q-135 -2 -209 90q-69 84 -69 222q0 136 65 217q71 88 204 88q265 0 266 -313zM428 345q0 62 -27 108q-31 54 -89 56q-63 2 -101 -71q-20 -39 -22 -93h239zM456 727
q-11 -38 -40.5 -62.5t-68.5 -24.5q-17 0 -63 30q-11 7 -31 8q-31 1 -46 -31l-44 2q13 37 43.5 62.5t67.5 25.5q23 -4 39 -12q10 -7 31 -21q6 -3 24 -7q24 -2 47 32z" />
    <glyph glyph-name="Scedilla" unicode="&#x15e;" horiz-adv-x="769" 
d="M594 213q1 -110 -69 -169q-66 -56 -177 -56q-141 0 -183 88v-76h-124v271h130q3 -181 143 -182q127 -1 127 113q0 76 -103 114l-125 46q-86 31 -124 74q-47 50 -47 134q0 107 67 166q63 56 172 56q127 0 173 -79v65h123v-255h-127q0 170 -138 171q-52 0 -85 -26
q-34 -29 -34 -80q0 -72 104 -109l121 -43q91 -32 131 -79q44 -52 45 -144zM680 490h-43l-215 -539q-31 -78 -65 -107q-40 -35 -118 -36q-59 -1 -78 6v102q31 -5 56 -6q32 -1 46 9q13 7 29 40l17 34l-201 497h-46v91h279v-91h-75l75 -196q17 -28 44 -142q11 63 37 136l72 202
h-72v91h258v-91zM528 697q-11 -38 -40.5 -62.5t-68.5 -24.5q-17 0 -63 30q-11 7 -31 8q-31 1 -46 -31l-44 2q13 37 43.5 62.5t67.5 25.5q23 -4 39 -12q10 -7 31 -21q6 -3 24 -7q24 -2 47 32z" />
    <glyph glyph-name="scedilla" unicode="&#x15f;" horiz-adv-x="449" 
d="M507 172q1 -87 -55.5 -135.5t-144.5 -48.5q-112 0 -151 76v-64h-106v203h114q0 -51 30 -86.5t80 -36.5q36 -1 61 20t25 56q0 52 -55 66l-32 8q-28 4 -102 24q-119 45 -121 167q-1 81 58 130q55 46 137 46q110 0 143 -74v59h103v-191h-109q-1 116 -103 116q-84 0 -84 -69
q0 -33 17 -50q23 -17 69 -25l33 -6q96 -17 133 -45q59 -44 60 -140zM566 490h-43l-215 -539q-31 -78 -65 -107q-40 -35 -118 -36q-59 -1 -78 6v102q31 -5 56 -6q32 -1 46 9q13 7 29 40l17 34l-201 497h-46v91h279v-91h-75l75 -196q17 -28 44 -142q11 63 37 136l72 202h-72
v91h258v-91zM414 697q-11 -38 -40.5 -62.5t-68.5 -24.5q-17 0 -63 30q-11 7 -31 8q-31 1 -46 -31l-44 2q13 37 43.5 62.5t67.5 25.5q23 -4 39 -12q10 -7 31 -21q6 -3 24 -7q24 -2 47 32z" />
    <glyph glyph-name="Scaron" unicode="&#x160;" horiz-adv-x="628" 
d="M517 1006l-136 -157h-135l-135 157h116l89 -102l87 102h114zM594 213q1 -110 -69 -169q-66 -56 -177 -56q-141 0 -183 88v-76h-124v271h130q3 -181 143 -182q127 -1 127 113q0 76 -103 114l-125 46q-86 31 -124 74q-47 50 -47 134q0 107 67 166q63 56 172 56
q127 0 173 -79v65h123v-255h-127q0 170 -138 171q-52 0 -85 -26q-34 -29 -34 -80q0 -72 104 -109l121 -43q91 -32 131 -79q44 -52 45 -144z" />
    <glyph glyph-name="scaron" unicode="&#x161;" horiz-adv-x="547" 
d="M450 820l-115 -147h-128l-113 147v6h91l88 -102l86 102h91v-6zM507 172q1 -87 -55.5 -135.5t-144.5 -48.5q-112 0 -151 76v-64h-106v203h114q0 -51 30 -86.5t80 -36.5q36 -1 61 20t25 56q0 52 -55 66l-32 8q-28 4 -102 24q-119 45 -121 167q-1 81 58 130q55 46 137 46
q110 0 143 -74v59h103v-191h-109q-1 116 -103 116q-84 0 -84 -69q0 -33 17 -50q23 -17 69 -25l33 -6q96 -17 133 -45q59 -44 60 -140z" />
    <glyph glyph-name="ch903" unicode="&#x168;" horiz-adv-x="791" 
d="M775 681h-79v-390q0 -308 -305 -310q-196 -1 -266 146q-30 63 -30 136v418h-77v98h325v-98h-97v-395q0 -79 17 -116q39 -85 141 -86q154 -2 154 202v395h-95v98h312v-98zM549 889q-11 -38 -40.5 -62.5t-68.5 -24.5q-17 0 -63 30q-11 7 -31 8q-31 1 -46 -31l-44 2
q13 37 43.5 62.5t67.5 25.5q23 -4 39 -12q10 -7 31 -21q6 -3 24 -7q24 -2 47 32z" />
    <glyph glyph-name="ch904" unicode="&#x169;" horiz-adv-x="689" 
d="M657 0h-212v104q-35 -116 -174 -116q-110 0 -155 83q-21 39 -21 117v302h-75v92h223v-368q0 -120 85 -121q107 -1 107 170v227h-79v92h226v-488h75v-94zM486 707q-11 -38 -40.5 -62.5t-68.5 -24.5q-17 0 -63 30q-11 7 -31 8q-31 1 -46 -31l-44 2q13 37 43.5 62.5
t67.5 25.5q23 -4 39 -12q10 -7 31 -21q6 -3 24 -7q24 -2 47 32z" />
    <glyph glyph-name="Ydieresis" unicode="&#x178;" horiz-adv-x="728" 
d="M673 0h-647v98h91v585h-91v99h647v-239h-121v140h-288v-239h117v102h103v-298h-103v100h-117v-250h288v150h121v-248zM500 802h-84l-68 53l-69 -53h-83v6l101 98h103l100 -98v-6zM495 1013q-11 -38 -40.5 -62.5t-68.5 -24.5q-17 0 -63 30q-11 7 -31 8q-31 1 -46 -31
l-44 2q13 37 43.5 62.5t67.5 25.5q25 -4 39 -12q6 -3 31 -21q6 -3 24 -7q24 -2 47 32z" />
    <glyph glyph-name="Zcaron" unicode="&#x17d;" horiz-adv-x="689" 
d="M547 1006l-136 -157h-134l-135 157h116l89 -102l87 102h113zM653 0h-619v120l435 566h-300v-156h-124v249h597v-118l-439 -570h326v167h124v-258z" />
    <glyph glyph-name="zcaron" unicode="&#x17e;" horiz-adv-x="567" 
d="M461 820l-115 -147h-128l-114 147v6h92l88 -102l85 102h92v-6zM518 0h-470v113l308 383h-187v-96h-113v182h456v-111l-307 -383h201v108h112v-196z" />
    <glyph glyph-name="florin" unicode="&#x192;" 
d="M833 0h-316v98h94l-50 142h-290l-49 -142h93v-98h-297v98h62l258 684h179l254 -684h62v-98zM523 335l-107 322l-108 -322h215zM580 792h-84l-68 53l-69 -53h-83v6l101 98h103l100 -98v-6zM754 954l-142 -109h-60l88 122h114v-13z" />
    <glyph glyph-name="glyph277" unicode="&#x1a0;" 
d="M640 391q0 317 -216 317q-116 0 -170 -103q-41 -79 -42 -207q-1 -130 40 -211q53 -105 171 -106q119 -1 174 101q43 79 43 209zM664 731q36 24 36 42q0 8 -19 20t-19 33q0 20 15.5 36.5t35.5 16.5q24 0 40.5 -19.5t16.5 -44.5q0 -35 -32 -61q-27 -22 -65 -31
q130 -104 130 -323q0 -188 -92 -299q-100 -119 -284 -120t-283 117q-93 110 -94 297q-1 184 93 294q99 116 280 117q146 1 241 -75z" />
    <glyph glyph-name="glyph278" unicode="&#x1a1;" horiz-adv-x="628" 
d="M444 297q0 81 -25 134q-33 71 -105 72t-106 -73q-26 -55 -26 -136q0 -80 25 -136q34 -75 104 -76q133 -1 133 215zM446 573q41 10 40 27q0 4 -8.5 14t-8.5 21q0 16 14 27t30 11q19 0 30 -16.5t9 -35.5q-3 -31 -32 -46q-25 -13 -58 -11q135 -81 136 -273q1 -135 -73 -218
q-77 -87 -210 -88q-135 -1 -212 89q-73 86 -73 223q0 138 76 220t212 83q71 1 128 -27z" />
    <glyph glyph-name="glyph279" unicode="&#x1af;" horiz-adv-x="791" 
d="M696 681v-390q0 -308 -305 -310q-196 -1 -266 146q-30 63 -30 136v418h-77v98h325v-98h-97v-395q0 -79 17 -116q39 -85 141 -86q154 -2 154 202v395h-95v98q117 2 233 -3q10 0 30.5 -6t30.5 -6q8 0 8 4t-6 11q-3 3 -19 13q-11 7 -16 21q-2 6 -2 13q0 21 15.5 37.5
t36.5 16.5q23 0 40 -19t17 -42q0 -35 -37 -64q-29 -22 -69 -33q-29 -18 -29 -41z" />
    <glyph glyph-name="glyph280" unicode="&#x1b0;" horiz-adv-x="689" 
d="M582 564v-470h75v-94h-212v104q-35 -116 -174 -116q-110 0 -155 83q-21 39 -21 117v302h-75v92h223v-368q0 -120 85 -121q107 -1 107 170v227h-79v92h226q14 7 14 18q0 4 -8.5 14t-8.5 21q0 16 14 27t30 11q19 0 30 -16.5t9 -35.5q-6 -57 -80 -57z" />
    <glyph glyph-name="circumflex" unicode="&#x2c6;" horiz-adv-x="689" 
d="M582 564v-470h75v-94h-212v104q-35 -116 -174 -116q-110 0 -155 83q-21 39 -21 117v302h-75v92h223v-368q0 -120 85 -121q107 -1 107 170v227h-79v92h226q14 7 14 18q0 4 -8.5 14t-8.5 21q0 16 14 27t30 11q19 0 30 -16.5t9 -35.5q-6 -57 -80 -57zM423 735q0 -39 -29 -66
l-13 -12q-3 -3 -15 -20q-2 -6 -4 -27h-49q0 5 -1 9q0 33 24 57l14 14q18 18 19 43q1 32 -27 32q-27 0 -31 -36l-42 5q6 68 78 68q76 0 76 -67z" />
    <glyph glyph-name="caron" unicode="&#x2c7;" 
d="M803 400q0 -188 -92 -299q-100 -119 -284 -120t-283 117q-93 110 -94 297q-1 184 93 294q100 116 280 117q181 1 283 -113q97 -110 97 -293zM640 391q0 317 -216 317q-116 0 -170 -103q-41 -79 -42 -207q-1 -130 40 -211q53 -105 171 -106q119 -1 174 101q43 79 43 209z
M575 822h-84l-68 53l-69 -53h-83v6l101 98h103l100 -98v-6zM749 984l-142 -109h-60l88 122h114v-13z" />
    <glyph glyph-name="breve" unicode="&#x2d8;" horiz-adv-x="689" 
d="M582 564v-470h75v-94h-212v104q-35 -116 -174 -116q-110 0 -155 83q-21 39 -21 117v302h-75v92h223v-368q0 -120 85 -121q107 -1 107 170v227h-79v92h226q14 7 14 18q0 4 -8.5 14t-8.5 21q0 16 14 27t30 11q19 0 30 -16.5t9 -35.5q-6 -57 -80 -57zM400 -168h-119v116h119
v-116z" />
    <glyph glyph-name="dotaccent" unicode="&#x2d9;" horiz-adv-x="648" 
d="M634 490h-43l-215 -539q-31 -78 -65 -107q-40 -35 -118 -36q-59 -1 -78 6v102q31 -5 56 -6q32 -1 46 9q13 7 29 40l17 34l-201 497h-46v91h279v-91h-75l75 -196q17 -28 44 -142q11 63 37 136l72 202h-72v91h258v-91zM365 600h-60l-142 109v13h114z" />
    <glyph glyph-name="ring" unicode="&#x2da;" horiz-adv-x="648" 
d="M634 490h-43l-215 -539q-31 -78 -65 -107q-40 -35 -118 -36q-59 -1 -78 6v102q31 -5 56 -6q32 -1 46 9q13 7 29 40l17 34l-201 497h-46v91h279v-91h-75l75 -196q17 -28 44 -142q11 63 37 136l72 202h-72v91h258v-91zM423 715q0 -39 -29 -66l-13 -12q-3 -3 -15 -20
q-2 -6 -4 -27h-49q0 5 -1 9q0 33 24 57l14 14q18 18 19 43q1 32 -27 32q-27 0 -31 -36l-42 5q6 68 78 68q76 0 76 -67z" />
    <glyph glyph-name="ogonek" unicode="&#x2db;" horiz-adv-x="648" 
d="M634 490h-43l-215 -539q-31 -78 -65 -107q-40 -35 -118 -36q-59 -1 -78 6v102q31 -5 56 -6q32 -1 46 9q13 7 29 40l17 34l-201 497h-46v91h279v-91h-75l75 -196q17 -28 44 -142q11 63 37 136l72 202h-72v91h258v-91zM525 -168h-119v116h119v-116z" />
    <glyph glyph-name="tilde" unicode="&#x2dc;" horiz-adv-x="689" 
d="M582 564v-470h75v-94h-212v104q-35 -116 -174 -116q-110 0 -155 83q-21 39 -21 117v302h-75v92h223v-368q0 -120 85 -121q107 -1 107 170v227h-79v92h226q14 7 14 18q0 4 -8.5 14t-8.5 21q0 16 14 27t30 11q19 0 30 -16.5t9 -35.5q-6 -57 -80 -57zM486 707
q-11 -38 -40.5 -62.5t-68.5 -24.5q-17 0 -63 30q-11 7 -31 8q-31 1 -46 -31l-44 2q13 37 43.5 62.5t67.5 25.5q23 -4 39 -12q10 -7 31 -21q6 -3 24 -7q24 -2 47 32z" />
    <glyph glyph-name="hungarumlaut" unicode="&#x2dd;" horiz-adv-x="648" 
d="M634 490h-43l-215 -539q-31 -78 -65 -107q-40 -35 -118 -36q-59 -1 -78 6v102q31 -5 56 -6q32 -1 46 9q13 7 29 40l17 34l-201 497h-46v91h279v-91h-75l75 -196q17 -28 44 -142q11 63 37 136l72 202h-72v91h258v-91zM508 709l-142 -109h-60l88 122h114v-13z" />
    <glyph glyph-name="Delta" unicode="&#x394;" horiz-adv-x="628" 
d="M606 0h-200v100q-46 -109 -184 -111q-83 -1 -134 45.5t-52 128.5q-2 120 101 166q59 26 172 27q22 0 80 -2q0 15 1 26q0 132 -95 132q-88 0 -92 -104h-146q10 191 238 192q121 1 178 -55t57 -176v-275h76v-94zM393 265v7h-7l-43 1q-75 2 -111 -16q-49 -25 -50 -92
q-1 -81 81 -82q71 -1 105 69q25 51 25 113zM323 -167h-119v116h119v-116zM445 733q-49 -77 -93 -92q-31 -11 -59 -11q-26 0 -56 10q-48 16 -96 93v6h68q32 -48 84 -48q56 0 83 48h69v-6z" />
    <glyph glyph-name="Delta" unicode="&#x2206;" horiz-adv-x="628" 
d="M606 0h-200v100q-46 -109 -184 -111q-83 -1 -134 45.5t-52 128.5q-2 120 101 166q59 26 172 27q22 0 80 -2q0 15 1 26q0 132 -95 132q-88 0 -92 -104h-146q10 191 238 192q121 1 178 -55t57 -176v-275h76v-94zM393 265v7h-7l-43 1q-75 2 -111 -16q-49 -25 -50 -92
q-1 -81 81 -82q71 -1 105 69q25 51 25 113zM323 -167h-119v116h119v-116zM445 733q-49 -77 -93 -92q-31 -11 -59 -11q-26 0 -56 10q-48 16 -96 93v6h68q32 -48 84 -48q56 0 83 48h69v-6z" />
    <glyph glyph-name="Omega" unicode="&#x3a9;" horiz-adv-x="628" 
d="M606 0h-200v100q-46 -109 -184 -111q-83 -1 -134 45.5t-52 128.5q-2 120 101 166q59 26 172 27q22 0 80 -2q0 15 1 26q0 132 -95 132q-88 0 -92 -104h-146q10 191 238 192q121 1 178 -55t57 -176v-275h76v-94zM393 265v7h-7l-43 1q-75 2 -111 -16q-49 -25 -50 -92
q-1 -81 81 -82q71 -1 105 69q25 51 25 113zM445 733q-49 -77 -93 -92q-31 -11 -59 -11q-26 0 -56 10q-48 16 -96 93v6h68q32 -48 84 -48q56 0 83 48h69v-6zM564 846q-11 -38 -40.5 -62.5t-68.5 -24.5q-17 0 -63 30q-11 7 -31 8q-31 1 -46 -31l-44 2q13 37 43.5 62.5
t67.5 25.5q25 -4 39 -12q7 -4 31 -21q6 -3 24 -7q24 -2 47 32z" />
    <glyph glyph-name="Omega" unicode="&#x2126;" horiz-adv-x="628" 
d="M606 0h-200v100q-46 -109 -184 -111q-83 -1 -134 45.5t-52 128.5q-2 120 101 166q59 26 172 27q22 0 80 -2q0 15 1 26q0 132 -95 132q-88 0 -92 -104h-146q10 191 238 192q121 1 178 -55t57 -176v-275h76v-94zM393 265v7h-7l-43 1q-75 2 -111 -16q-49 -25 -50 -92
q-1 -81 81 -82q71 -1 105 69q25 51 25 113zM445 733q-49 -77 -93 -92q-31 -11 -59 -11q-26 0 -56 10q-48 16 -96 93v6h68q32 -48 84 -48q56 0 83 48h69v-6zM564 846q-11 -38 -40.5 -62.5t-68.5 -24.5q-17 0 -63 30q-11 7 -31 8q-31 1 -46 -31l-44 2q13 37 43.5 62.5
t67.5 25.5q25 -4 39 -12q7 -4 31 -21q6 -3 24 -7q24 -2 47 32z" />
    <glyph glyph-name="pi" unicode="&#x3c0;" horiz-adv-x="628" 
d="M606 0h-200v100q-46 -109 -184 -111q-83 -1 -134 45.5t-52 128.5q-2 120 101 166q59 26 172 27q22 0 80 -2q0 15 1 26q0 132 -95 132q-88 0 -92 -104h-146q10 191 238 192q121 1 178 -55t57 -176v-275h76v-94zM393 265v7h-7l-43 1q-75 2 -111 -16q-49 -25 -50 -92
q-1 -81 81 -82q71 -1 105 69q25 51 25 113zM323 -167h-119v116h119v-116z" />
    <glyph glyph-name="glyph281" unicode="&#x1ea0;" 
d="M833 0h-316v98h94l-50 142h-290l-49 -142h93v-98h-297v98h62l258 684h179l254 -684h62v-98zM523 335l-107 322l-108 -322h215zM476 -118h-119v116h119v-116z" />
    <glyph glyph-name="glyph282" unicode="&#x1ea1;" horiz-adv-x="628" 
d="M606 0h-200v100q-46 -109 -184 -111q-83 -1 -134 45.5t-52 128.5q-2 120 101 166q59 26 172 27q22 0 80 -2q0 15 1 26q0 132 -95 132q-88 0 -92 -104h-146q10 191 238 192q121 1 178 -55t57 -176v-275h76v-94zM393 265v7h-7l-43 1q-75 2 -111 -16q-49 -25 -50 -92
q-1 -81 81 -82q71 -1 105 69q25 51 25 113zM323 -167h-119v116h119v-116z" />
    <glyph glyph-name="glyph283" unicode="&#x1ea2;" 
d="M833 0h-316v98h94l-50 142h-290l-49 -142h93v-98h-297v98h62l258 684h179l254 -684h62v-98zM523 335l-107 322l-108 -322h215zM513 937q0 -39 -29 -66l-13 -12q-3 -3 -15 -20q-2 -6 -4 -27h-49q0 5 -1 9q0 33 24 57l14 14q18 18 19 43q1 32 -27 32q-26 0 -31 -36l-42 5
q6 68 78 68q76 0 76 -67z" />
    <glyph glyph-name="glyph284" unicode="&#x1ea3;" horiz-adv-x="628" 
d="M606 0h-200v100q-46 -109 -184 -111q-83 -1 -134 45.5t-52 128.5q-2 120 101 166q59 26 172 27q22 0 80 -2q0 15 1 26q0 132 -95 132q-88 0 -92 -104h-146q10 191 238 192q121 1 178 -55t57 -176v-275h76v-94zM393 265v7h-7l-43 1q-75 2 -111 -16q-49 -25 -50 -92
q-1 -81 81 -82q71 -1 105 69q25 51 25 113zM379 755q0 -39 -29 -66l-13 -12q-3 -3 -15 -20q-2 -6 -4 -27h-49q0 5 -1 9q0 33 24 57l14 14q18 18 19 43q1 32 -27 32q-26 0 -31 -36l-42 5q6 68 78 68q76 0 76 -67z" />
    <glyph glyph-name="glyph285" unicode="&#x1ea4;" 
d="M833 0h-316v98h94l-50 142h-290l-49 -142h93v-98h-297v98h62l258 684h179l254 -684h62v-98zM523 335l-107 322l-108 -322h215zM580 792h-84l-68 53l-69 -53h-83v6l101 98h103l100 -98v-6zM754 954l-142 -109h-60l88 122h114v-13z" />
    <glyph glyph-name="glyph286" unicode="&#x1ea5;" horiz-adv-x="628" 
d="M606 0h-200v100q-46 -109 -184 -111q-83 -1 -134 45.5t-52 128.5q-2 120 101 166q59 26 172 27q22 0 80 -2q0 15 1 26q0 132 -95 132q-88 0 -92 -104h-146q10 191 238 192q121 1 178 -55t57 -176v-275h76v-94zM393 265v7h-7l-43 1q-75 2 -111 -16q-49 -25 -50 -92
q-1 -81 81 -82q71 -1 105 69q25 51 25 113zM445 619h-84l-68 53l-69 -53h-83v6l101 98h103l100 -98v-6zM619 781l-142 -109h-60l88 122h114v-13z" />
    <glyph glyph-name="glyph287" unicode="&#x1ea6;" 
d="M833 0h-316v98h94l-50 142h-290l-49 -142h93v-98h-297v98h62l258 684h179l254 -684h62v-98zM523 335l-107 322l-108 -322h215zM304 845h-60l-142 109v13h114zM580 792h-84l-68 53l-69 -53h-83v6l101 98h103l100 -98v-6z" />
    <glyph glyph-name="glyph288" unicode="&#x1ea7;" horiz-adv-x="628" 
d="M606 0h-200v100q-46 -109 -184 -111q-83 -1 -134 45.5t-52 128.5q-2 120 101 166q59 26 172 27q22 0 80 -2q0 15 1 26q0 132 -95 132q-88 0 -92 -104h-146q10 191 238 192q121 1 178 -55t57 -176v-275h76v-94zM393 265v7h-7l-43 1q-75 2 -111 -16q-49 -25 -50 -92
q-1 -81 81 -82q71 -1 105 69q25 51 25 113zM445 620h-84l-68 53l-69 -53h-83v6l101 98h103l100 -98v-6zM169 673h-60l-142 109v13h114z" />
    <glyph glyph-name="glyph289" unicode="&#x1ea8;" 
d="M833 0h-316v98h94l-50 142h-290l-49 -142h93v-98h-297v98h62l258 684h179l254 -684h62v-98zM523 335l-107 322l-108 -322h215zM580 792h-84l-68 53l-69 -53h-83v6l101 98h103l100 -98v-6zM667 970q0 -39 -29 -66l-13 -12q-3 -3 -15 -20q-2 -6 -4 -27h-49q0 5 -1 9
q0 33 24 57l14 14q18 18 19 43q1 32 -27 32q-26 0 -31 -36l-42 5q6 68 78 68q76 0 76 -67z" />
    <glyph glyph-name="glyph290" unicode="&#x1ea9;" horiz-adv-x="628" 
d="M606 0h-200v100q-46 -109 -184 -111q-83 -1 -134 45.5t-52 128.5q-2 120 101 166q59 26 172 27q22 0 80 -2q0 15 1 26q0 132 -95 132q-88 0 -92 -104h-146q10 191 238 192q121 1 178 -55t57 -176v-275h76v-94zM393 265v7h-7l-43 1q-75 2 -111 -16q-49 -25 -50 -92
q-1 -81 81 -82q71 -1 105 69q25 51 25 113zM445 620h-84l-68 53l-69 -53h-83v6l101 98h103l100 -98v-6zM532 798q0 -39 -29 -66l-13 -12q-3 -3 -15 -20q-2 -6 -4 -27h-49q0 5 -1 9q0 33 24 57l14 14q18 18 19 43q1 32 -27 32q-27 0 -31 -36l-42 5q6 68 78 68q76 0 76 -67z
" />
    <glyph glyph-name="glyph291" unicode="&#x1eaa;" 
d="M833 0h-316v98h94l-50 142h-290l-49 -142h93v-98h-297v98h62l258 684h179l254 -684h62v-98zM523 335l-107 322l-108 -322h215zM580 792h-84l-68 53l-69 -53h-83v6l101 98h103l100 -98v-6zM575 1003q-11 -38 -40.5 -62.5t-68.5 -24.5q-17 0 -63 30q-11 7 -31 8
q-31 1 -46 -31l-44 2q13 37 43.5 62.5t67.5 25.5q23 -4 39 -12q10 -7 31 -21q6 -3 24 -7q24 -2 47 32z" />
    <glyph glyph-name="glyph292" unicode="&#x1eab;" horiz-adv-x="628" 
d="M606 0h-200v100q-46 -109 -184 -111q-83 -1 -134 45.5t-52 128.5q-2 120 101 166q59 26 172 27q22 0 80 -2q0 15 1 26q0 132 -95 132q-88 0 -92 -104h-146q10 191 238 192q121 1 178 -55t57 -176v-275h76v-94zM393 265v7h-7l-43 1q-75 2 -111 -16q-49 -25 -50 -92
q-1 -81 81 -82q71 -1 105 69q25 51 25 113zM445 620h-84l-68 53l-69 -53h-83v6l101 98h103l100 -98v-6zM440 831q-11 -38 -40.5 -62.5t-68.5 -24.5q-17 0 -63 30q-11 7 -31 8q-31 1 -46 -31l-44 2q13 37 43.5 62.5t67.5 25.5q23 -4 39 -12q10 -7 31 -21q6 -3 24 -7
q24 -2 47 32z" />
    <glyph glyph-name="glyph293" unicode="&#x1eac;" 
d="M833 0h-316v98h94l-50 142h-290l-49 -142h93v-98h-297v98h62l258 684h179l254 -684h62v-98zM523 335l-107 322l-108 -322h215zM580 792h-84l-68 53l-69 -53h-83v6l101 98h103l100 -98v-6zM476 -118h-119v116h119v-116z" />
    <glyph glyph-name="glyph294" unicode="&#x1ead;" horiz-adv-x="628" 
d="M606 0h-200v100q-46 -109 -184 -111q-83 -1 -134 45.5t-52 128.5q-2 120 101 166q59 26 172 27q22 0 80 -2q0 15 1 26q0 132 -95 132q-88 0 -92 -104h-146q10 191 238 192q121 1 178 -55t57 -176v-275h76v-94zM393 265v7h-7l-43 1q-75 2 -111 -16q-49 -25 -50 -92
q-1 -81 81 -82q71 -1 105 69q25 51 25 113zM323 -167h-119v116h119v-116zM445 619h-84l-68 53l-69 -53h-83v6l101 98h103l100 -98v-6z" />
    <glyph glyph-name="glyph295" unicode="&#x1eae;" 
d="M580 906q-49 -77 -93 -92q-31 -11 -59 -11q-26 0 -56 10q-48 16 -96 93v6h68q32 -48 84 -48q56 0 83 48h69v-6zM833 0h-316v98h94l-50 142h-290l-49 -142h93v-98h-297v98h62l258 684h179l254 -684h62v-98zM523 335l-107 322l-108 -322h215zM600 1021l-143 -109h-59
l88 122h114v-13z" />
    <glyph glyph-name="glyph296" unicode="&#x1eaf;" horiz-adv-x="628" 
d="M606 0h-200v100q-46 -109 -184 -111q-83 -1 -134 45.5t-52 128.5q-2 120 101 166q59 26 172 27q22 0 80 -2q0 15 1 26q0 132 -95 132q-88 0 -92 -104h-146q10 191 238 192q121 1 178 -55t57 -176v-275h76v-94zM393 265v7h-7l-43 1q-75 2 -111 -16q-49 -25 -50 -92
q-1 -81 81 -82q71 -1 105 69q25 51 25 113zM445 733q-49 -77 -93 -92q-31 -11 -59 -11q-26 0 -56 10q-48 16 -96 93v6h68q32 -48 84 -48q56 0 83 48h69v-6zM465 848l-143 -109h-59l88 122h114v-13z" />
    <glyph glyph-name="glyph297" unicode="&#x1eb0;" 
d="M580 906q-49 -77 -93 -92q-31 -11 -59 -11q-26 0 -56 10q-48 16 -96 93v6h68q32 -48 84 -48q56 0 83 48h69v-6zM833 0h-316v98h94l-50 142h-290l-49 -142h93v-98h-297v98h62l258 684h179l254 -684h62v-98zM523 335l-107 322l-108 -322h215zM458 912h-60l-142 109v13h114z
" />
    <glyph glyph-name="glyph298" unicode="&#x1eb1;" horiz-adv-x="628" 
d="M606 0h-200v100q-46 -109 -184 -111q-83 -1 -134 45.5t-52 128.5q-2 120 101 166q59 26 172 27q22 0 80 -2q0 15 1 26q0 132 -95 132q-88 0 -92 -104h-146q10 191 238 192q121 1 178 -55t57 -176v-275h76v-94zM393 265v7h-7l-43 1q-75 2 -111 -16q-49 -25 -50 -92
q-1 -81 81 -82q71 -1 105 69q25 51 25 113zM446 733q-49 -77 -93 -92q-31 -11 -59 -11q-26 0 -56 10q-48 16 -96 93v6h68q32 -48 84 -48q56 0 83 48h69v-6zM324 739h-60l-142 109v13h114z" />
    <glyph glyph-name="glyph299" unicode="&#x1eb2;" 
d="M580 906q-49 -77 -93 -92q-31 -11 -59 -11q-26 0 -56 10q-48 16 -96 93v6h68q32 -48 84 -48q56 0 83 48h69v-6zM833 0h-316v98h94l-50 142h-290l-49 -142h93v-98h-297v98h62l258 684h179l254 -684h62v-98zM523 335l-107 322l-108 -322h215zM513 1027q0 -39 -29 -66
l-13 -12q-3 -3 -15 -20q-2 -6 -4 -27h-49q0 5 -1 9q0 33 24 57l14 14q18 18 19 43q1 32 -27 32q-26 0 -31 -36l-42 5q6 68 78 68q76 0 76 -67z" />
    <glyph glyph-name="glyph300" unicode="&#x1eb3;" horiz-adv-x="628" 
d="M606 0h-200v100q-46 -109 -184 -111q-83 -1 -134 45.5t-52 128.5q-2 120 101 166q59 26 172 27q22 0 80 -2q0 15 1 26q0 132 -95 132q-88 0 -92 -104h-146q10 191 238 192q121 1 178 -55t57 -176v-275h76v-94zM393 265v7h-7l-43 1q-75 2 -111 -16q-49 -25 -50 -92
q-1 -81 81 -82q71 -1 105 69q25 51 25 113zM444 733q-49 -77 -94 -92q-30 -11 -58 -11q-26 0 -56 10q-48 16 -96 93v6h68q32 -48 84 -48q56 0 83 48h69v-6zM377 854q0 -39 -29 -66l-13 -12q-3 -3 -15 -20q-2 -6 -4 -27h-49q0 5 -1 9q0 33 24 57l14 14q18 18 19 43
q1 32 -27 32q-27 0 -31 -36l-42 5q6 68 78 68q76 0 76 -67z" />
    <glyph glyph-name="glyph301" unicode="&#x1eb4;" 
d="M580 906q-49 -77 -93 -92q-31 -11 -59 -11q-26 0 -56 10q-48 16 -96 93v6h68q32 -48 84 -48q56 0 83 48h69v-6zM833 0h-316v98h94l-50 142h-290l-49 -142h93v-98h-297v98h62l258 684h179l254 -684h62v-98zM523 335l-107 322l-108 -322h215zM699 1019q-11 -38 -40.5 -62.5
t-68.5 -24.5q-17 0 -63 30q-11 7 -31 8q-31 1 -46 -31l-44 2q13 37 43.5 62.5t67.5 25.5q23 -4 39 -12q10 -7 31 -21q6 -3 24 -7q24 -2 47 32z" />
    <glyph glyph-name="glyph302" unicode="&#x1eb5;" horiz-adv-x="628" 
d="M606 0h-200v100q-46 -109 -184 -111q-83 -1 -134 45.5t-52 128.5q-2 120 101 166q59 26 172 27q22 0 80 -2q0 15 1 26q0 132 -95 132q-88 0 -92 -104h-146q10 191 238 192q121 1 178 -55t57 -176v-275h76v-94zM393 265v7h-7l-43 1q-75 2 -111 -16q-49 -25 -50 -92
q-1 -81 81 -82q71 -1 105 69q25 51 25 113zM445 733q-49 -77 -93 -92q-31 -11 -59 -11q-26 0 -56 10q-48 16 -96 93v6h68q32 -48 84 -48q56 0 83 48h69v-6zM564 846q-11 -38 -40.5 -62.5t-68.5 -24.5q-17 0 -63 30q-11 7 -31 8q-31 1 -46 -31l-44 2q13 37 43.5 62.5
t67.5 25.5q25 -4 39 -12q7 -4 31 -21q6 -3 24 -7q24 -2 47 32z" />
    <glyph glyph-name="glyph303" unicode="&#x1eb6;" 
d="M580 906q-49 -77 -93 -92q-31 -11 -59 -11q-26 0 -56 10q-48 16 -96 93v6h68q32 -48 84 -48q56 0 83 48h69v-6zM833 0h-316v98h94l-50 142h-290l-49 -142h93v-98h-297v98h62l258 684h179l254 -684h62v-98zM523 335l-107 322l-108 -322h215zM476 -118h-119v116h119v-116z
" />
    <glyph glyph-name="glyph304" unicode="&#x1eb7;" horiz-adv-x="628" 
d="M606 0h-200v100q-46 -109 -184 -111q-83 -1 -134 45.5t-52 128.5q-2 120 101 166q59 26 172 27q22 0 80 -2q0 15 1 26q0 132 -95 132q-88 0 -92 -104h-146q10 191 238 192q121 1 178 -55t57 -176v-275h76v-94zM393 265v7h-7l-43 1q-75 2 -111 -16q-49 -25 -50 -92
q-1 -81 81 -82q71 -1 105 69q25 51 25 113zM323 -167h-119v116h119v-116zM445 733q-49 -77 -93 -92q-31 -11 -59 -11q-26 0 -56 10q-48 16 -96 93v6h68q32 -48 84 -48q56 0 83 48h69v-6z" />
    <glyph glyph-name="glyph305" unicode="&#x1eb8;" horiz-adv-x="728" 
d="M673 0h-647v98h91v585h-91v99h647v-239h-121v140h-288v-239h117v102h103v-298h-103v100h-117v-250h288v150h121v-248zM409 -156h-119v116h119v-116z" />
    <glyph glyph-name="glyph306" unicode="&#x1eb9;" horiz-adv-x="608" 
d="M575 286q0 -17 -1 -26h-388q10 -183 132 -183q83 0 110 96h139q-13 -94 -85 -145q-64 -45 -164 -46q-135 -2 -209 90q-69 84 -69 222q0 136 65 217q71 88 204 88q265 0 266 -313zM428 345q0 62 -27 108q-31 54 -89 56q-63 2 -101 -71q-20 -39 -22 -93h239zM378 -174h-119
v116h119v-116z" />
    <glyph glyph-name="glyph307" unicode="&#x1eba;" horiz-adv-x="728" 
d="M673 0h-647v98h91v585h-91v99h647v-239h-121v140h-288v-239h117v102h103v-298h-103v100h-117v-250h288v150h121v-248zM432 937q0 -39 -29 -66l-13 -12q-3 -3 -15 -20q-2 -6 -4 -27h-49q0 5 -1 9q0 33 24 57l14 14q18 18 19 43q1 32 -27 32q-27 0 -31 -36l-42 5
q6 68 78 68q76 0 76 -67z" />
    <glyph glyph-name="glyph308" unicode="&#x1ebb;" horiz-adv-x="608" 
d="M575 286q0 -17 -1 -26h-388q10 -183 132 -183q83 0 110 96h139q-13 -94 -85 -145q-64 -45 -164 -46q-135 -2 -209 90q-69 84 -69 222q0 136 65 217q71 88 204 88q265 0 266 -313zM428 345q0 62 -27 108q-31 54 -89 56q-63 2 -101 -71q-20 -39 -22 -93h239zM393 755
q0 -39 -29 -66l-13 -12q-3 -3 -15 -20q-2 -6 -4 -27h-49q0 5 -1 9q0 33 24 57l14 14q18 18 19 43q1 32 -27 32q-27 0 -31 -36l-42 5q6 68 78 68q76 0 76 -67z" />
    <glyph glyph-name="glyph309" unicode="&#x1ebc;" horiz-adv-x="728" 
d="M673 0h-647v98h91v585h-91v99h647v-239h-121v140h-288v-239h117v102h103v-298h-103v100h-117v-250h288v150h121v-248zM515 909q-11 -38 -40.5 -62.5t-68.5 -24.5q-17 0 -63 30q-11 7 -31 8q-31 1 -46 -31l-44 2q13 37 43.5 62.5t67.5 25.5q25 -4 39 -12q6 -3 31 -21
q6 -3 24 -7q24 -2 47 32z" />
    <glyph glyph-name="glyph310" unicode="&#x1ebd;" horiz-adv-x="608" 
d="M575 286q0 -17 -1 -26h-388q10 -183 132 -183q83 0 110 96h139q-13 -94 -85 -145q-64 -45 -164 -46q-135 -2 -209 90q-69 84 -69 222q0 136 65 217q71 88 204 88q265 0 266 -313zM428 345q0 62 -27 108q-31 54 -89 56q-63 2 -101 -71q-20 -39 -22 -93h239zM456 727
q-11 -38 -40.5 -62.5t-68.5 -24.5q-17 0 -63 30q-11 7 -31 8q-31 1 -46 -31l-44 2q13 37 43.5 62.5t67.5 25.5q23 -4 39 -12q10 -7 31 -21q6 -3 24 -7q24 -2 47 32z" />
    <glyph glyph-name="glyph311" unicode="&#x1ebe;" horiz-adv-x="728" 
d="M673 0h-647v98h91v585h-91v99h647v-239h-121v140h-288v-239h117v102h103v-298h-103v100h-117v-250h288v150h121v-248zM500 801h-84l-68 53l-69 -53h-83v6l101 98h103l100 -98v-6zM674 963l-142 -109h-60l88 122h114v-13z" />
    <glyph glyph-name="glyph312" unicode="&#x1ebf;" horiz-adv-x="608" 
d="M575 286q0 -17 -1 -26h-388q10 -183 132 -183q83 0 110 96h139q-13 -94 -85 -145q-64 -45 -164 -46q-135 -2 -209 90q-69 84 -69 222q0 136 65 217q71 88 204 88q265 0 266 -313zM428 345q0 62 -27 108q-31 54 -89 56q-63 2 -101 -71q-20 -39 -22 -93h239zM461 620h-84
l-68 53l-69 -53h-83v6l101 98h103l100 -98v-6zM635 782l-142 -109h-60l88 122h114v-13z" />
    <glyph glyph-name="glyph313" unicode="&#x1ec0;" horiz-adv-x="728" 
d="M673 0h-647v98h91v585h-91v99h647v-239h-121v140h-288v-239h117v102h103v-298h-103v100h-117v-250h288v150h121v-248zM500 802h-84l-68 53l-69 -53h-83v6l101 98h103l100 -98v-6zM224 855h-60l-142 109v13h114z" />
    <glyph glyph-name="glyph314" unicode="&#x1ec1;" horiz-adv-x="608" 
d="M575 286q0 -17 -1 -26h-388q10 -183 132 -183q83 0 110 96h139q-13 -94 -85 -145q-64 -45 -164 -46q-135 -2 -209 90q-69 84 -69 222q0 136 65 217q71 88 204 88q265 0 266 -313zM428 345q0 62 -27 108q-31 54 -89 56q-63 2 -101 -71q-20 -39 -22 -93h239zM461 620h-84
l-68 53l-69 -53h-83v6l101 98h103l100 -98v-6zM185 673h-60l-142 109v13h114z" />
    <glyph glyph-name="glyph315" unicode="&#x1ec2;" horiz-adv-x="728" 
d="M673 0h-647v98h91v585h-91v99h647v-239h-121v140h-288v-239h117v102h103v-298h-103v100h-117v-250h288v150h121v-248zM500 802h-84l-68 53l-69 -53h-83v6l101 98h103l100 -98v-6zM587 980q0 -39 -29 -66l-13 -12q-3 -3 -15 -20q-2 -6 -4 -27h-49q0 5 -1 9q0 33 24 57
l14 14q18 18 19 43q1 32 -27 32q-27 0 -31 -36l-42 5q6 68 78 68q76 0 76 -67z" />
    <glyph glyph-name="glyph316" unicode="&#x1ec3;" horiz-adv-x="608" 
d="M575 286q0 -17 -1 -26h-388q10 -183 132 -183q83 0 110 96h139q-13 -94 -85 -145q-64 -45 -164 -46q-135 -2 -209 90q-69 84 -69 222q0 136 65 217q71 88 204 88q265 0 266 -313zM428 345q0 62 -27 108q-31 54 -89 56q-63 2 -101 -71q-20 -39 -22 -93h239zM461 620h-84
l-68 53l-69 -53h-83v6l101 98h103l100 -98v-6zM548 798q0 -39 -29 -66l-13 -12q-3 -3 -15 -20q-2 -6 -4 -27h-49q0 5 -1 9q0 33 24 57l14 14q18 18 19 43q1 32 -27 32q-27 0 -31 -36l-42 5q6 68 78 68q76 0 76 -67z" />
    <glyph glyph-name="glyph317" unicode="&#x1ec4;" horiz-adv-x="728" 
d="M673 0h-647v98h91v585h-91v99h647v-239h-121v140h-288v-239h117v102h103v-298h-103v100h-117v-250h288v150h121v-248zM500 802h-84l-68 53l-69 -53h-83v6l101 98h103l100 -98v-6zM495 1013q-11 -38 -40.5 -62.5t-68.5 -24.5q-17 0 -63 30q-11 7 -31 8q-31 1 -46 -31
l-44 2q13 37 43.5 62.5t67.5 25.5q25 -4 39 -12q6 -3 31 -21q6 -3 24 -7q24 -2 47 32z" />
    <glyph glyph-name="glyph318" unicode="&#x1ec5;" horiz-adv-x="608" 
d="M575 286q0 -17 -1 -26h-388q10 -183 132 -183q83 0 110 96h139q-13 -94 -85 -145q-64 -45 -164 -46q-135 -2 -209 90q-69 84 -69 222q0 136 65 217q71 88 204 88q265 0 266 -313zM428 345q0 62 -27 108q-31 54 -89 56q-63 2 -101 -71q-20 -39 -22 -93h239zM459 620h-84
l-68 53l-69 -53h-83v6l101 98h103l100 -98v-6zM454 831q-11 -38 -40.5 -62.5t-68.5 -24.5q-17 0 -63 30q-11 7 -31 8q-31 1 -46 -31l-44 2q13 37 43.5 62.5t67.5 25.5q23 -4 39 -12q10 -7 31 -21q6 -3 24 -7q24 -2 47 32z" />
    <glyph glyph-name="glyph319" unicode="&#x1ec6;" horiz-adv-x="728" 
d="M673 0h-647v98h91v585h-91v99h647v-239h-121v140h-288v-239h117v102h103v-298h-103v100h-117v-250h288v150h121v-248zM500 801h-84l-68 53l-69 -53h-83v6l101 98h103l100 -98v-6zM409 -156h-119v116h119v-116z" />
    <glyph glyph-name="glyph320" unicode="&#x1ec7;" horiz-adv-x="608" 
d="M575 286q0 -17 -1 -26h-388q10 -183 132 -183q83 0 110 96h139q-13 -94 -85 -145q-64 -45 -164 -46q-135 -2 -209 90q-69 84 -69 222q0 136 65 217q71 88 204 88q265 0 266 -313zM428 345q0 62 -27 108q-31 54 -89 56q-63 2 -101 -71q-20 -39 -22 -93h239zM461 620h-84
l-68 53l-69 -53h-83v6l101 98h103l100 -98v-6zM378 -174h-119v116h119v-116z" />
    <glyph glyph-name="glyph321" unicode="&#x1ec8;" horiz-adv-x="386" 
d="M364 0h-342v97h95v586h-95v99h342v-99h-94v-586h94v-97zM278 937q0 -39 -29 -66l-13 -12q-3 -3 -15 -20q-2 -6 -4 -27h-49q0 5 -1 9q0 33 24 57l14 14q18 18 19 43q1 32 -27 32q-26 0 -31 -36l-42 5q6 68 78 68q76 0 76 -67z" />
    <glyph glyph-name="glyph322" unicode="&#x1ec9;" horiz-adv-x="364" 
d="M333 0h-292v93h76v397h-76v92h225v-489h67v-93zM274 737q0 -39 -29 -66l-13 -12q-3 -3 -15 -20q-2 -6 -4 -27h-49q0 5 -1 9q0 33 24 57l14 14q18 18 19 43q1 32 -27 32q-27 0 -31 -36l-42 5q6 68 78 68q76 0 76 -67z" />
    <glyph glyph-name="glyph323" unicode="&#x1eca;" horiz-adv-x="386" 
d="M364 0h-342v97h95v586h-95v99h342v-99h-94v-586h94v-97zM254 -156h-119v116h119v-116z" />
    <glyph glyph-name="glyph324" unicode="&#x1ecb;" horiz-adv-x="364" 
d="M333 0h-292v93h76v397h-76v92h225v-489h67v-93zM252 622h-121v108h121v-108zM250 -156h-119v116h119v-116z" />
    <glyph glyph-name="glyph325" unicode="&#x1ecc;" 
d="M803 400q0 -188 -92 -299q-100 -119 -284 -120t-283 117q-93 110 -94 297q-1 184 93 294q100 116 280 117q181 1 283 -113q97 -110 97 -293zM640 391q0 317 -216 317q-116 0 -170 -103q-41 -79 -42 -207q-1 -130 40 -211q53 -105 171 -106q119 -1 174 101q43 79 43 209z
M487 -175h-119v116h119v-116z" />
    <glyph glyph-name="glyph326" unicode="&#x1ecd;" horiz-adv-x="628" 
d="M598 291q1 -135 -73 -218q-77 -87 -210 -88q-135 -1 -212 89q-73 86 -73 223t76 219.5t212 83.5q134 1 209 -89q70 -83 71 -220zM444 297q0 81 -25 134q-33 71 -105 72t-106 -73q-26 -55 -26 -136q0 -80 25 -136q34 -75 104 -76q133 -1 133 215zM375 -171h-119v116h119
v-116z" />
    <glyph glyph-name="glyph327" unicode="&#x1ece;" 
d="M803 400q0 -188 -92 -299q-100 -119 -284 -120t-283 117q-93 110 -94 297q-1 184 93 294q100 116 280 117q181 1 283 -113q97 -110 97 -293zM640 391q0 317 -216 317q-116 0 -170 -103q-41 -79 -42 -207q-1 -130 40 -211q53 -105 171 -106q119 -1 174 101q43 79 43 209z
M507 961q0 -39 -29 -66l-13 -12q-3 -3 -15 -20q-2 -6 -4 -27h-49q0 5 -1 9q0 33 24 57l14 14q18 18 19 43q1 32 -27 32q-27 0 -31 -36l-42 5q6 68 78 68q76 0 76 -67z" />
    <glyph glyph-name="glyph328" unicode="&#x1ecf;" horiz-adv-x="628" 
d="M598 291q1 -135 -73 -218q-77 -87 -210 -88q-135 -1 -212 89q-73 86 -73 223t76 219.5t212 83.5q134 1 209 -89q70 -83 71 -220zM444 297q0 81 -25 134q-33 71 -105 72t-106 -73q-26 -55 -26 -136q0 -80 25 -136q34 -75 104 -76q133 -1 133 215zM402 755q0 -39 -29 -66
l-13 -12q-3 -3 -15 -20q-2 -6 -4 -27h-49q0 5 -1 9q0 33 24 57l14 14q18 18 19 43q1 32 -27 32q-27 0 -31 -36l-42 5q6 68 78 68q76 0 76 -67z" />
    <glyph glyph-name="glyph329" unicode="&#x1ed0;" 
d="M803 400q0 -188 -92 -299q-100 -119 -284 -120t-283 117q-93 110 -94 297q-1 184 93 294q100 116 280 117q181 1 283 -113q97 -110 97 -293zM640 391q0 317 -216 317q-116 0 -170 -103q-41 -79 -42 -207q-1 -130 40 -211q53 -105 171 -106q119 -1 174 101q43 79 43 209z
M575 822h-84l-68 53l-69 -53h-83v6l101 98h103l100 -98v-6zM749 984l-142 -109h-60l88 122h114v-13z" />
    <glyph glyph-name="glyph330" unicode="&#x1ed1;" horiz-adv-x="628" 
d="M598 291q1 -135 -73 -218q-77 -87 -210 -88q-135 -1 -212 89q-73 86 -73 223t76 219.5t212 83.5q134 1 209 -89q70 -83 71 -220zM444 297q0 81 -25 134q-33 71 -105 72t-106 -73q-26 -55 -26 -136q0 -80 25 -136q34 -75 104 -76q133 -1 133 215zM470 620h-84l-68 53
l-69 -53h-83v6l101 98h103l100 -98v-6zM644 782l-142 -109h-60l88 122h114v-13z" />
    <glyph glyph-name="glyph331" unicode="&#x1ed2;" 
d="M803 400q0 -188 -92 -299q-100 -119 -284 -120t-283 117q-93 110 -94 297q-1 184 93 294q100 116 280 117q181 1 283 -113q97 -110 97 -293zM640 391q0 317 -216 317q-116 0 -170 -103q-41 -79 -42 -207q-1 -130 40 -211q53 -105 171 -106q119 -1 174 101q43 79 43 209z
M299 875h-60l-142 109v13h114zM575 822h-84l-68 53l-69 -53h-83v6l101 98h103l100 -98v-6z" />
    <glyph glyph-name="glyph332" unicode="&#x1ed3;" horiz-adv-x="628" 
d="M598 291q1 -135 -73 -218q-77 -87 -210 -88q-135 -1 -212 89q-73 86 -73 223t76 219.5t212 83.5q134 1 209 -89q70 -83 71 -220zM444 297q0 81 -25 134q-33 71 -105 72t-106 -73q-26 -55 -26 -136q0 -80 25 -136q34 -75 104 -76q133 -1 133 215zM470 620h-84l-68 53
l-69 -53h-83v6l101 98h103l100 -98v-6zM194 673h-60l-142 109v13h114z" />
    <glyph glyph-name="glyph333" unicode="&#x1ed4;" 
d="M803 400q0 -188 -92 -299q-100 -119 -284 -120t-283 117q-93 110 -94 297q-1 184 93 294q100 116 280 117q181 1 283 -113q97 -110 97 -293zM640 391q0 317 -216 317q-116 0 -170 -103q-41 -79 -42 -207q-1 -130 40 -211q53 -105 171 -106q119 -1 174 101q43 79 43 209z
M575 822h-84l-68 53l-69 -53h-83v6l101 98h103l100 -98v-6zM662 1000q0 -39 -29 -66l-13 -12q-3 -3 -15 -20q-2 -6 -4 -27h-49q0 5 -1 9q0 33 24 57l14 14q18 18 19 43q1 32 -27 32q-27 0 -31 -36l-42 5q6 68 78 68q76 0 76 -67z" />
    <glyph glyph-name="glyph334" unicode="&#x1ed5;" horiz-adv-x="628" 
d="M598 291q1 -135 -73 -218q-77 -87 -210 -88q-135 -1 -212 89q-73 86 -73 223t76 219.5t212 83.5q134 1 209 -89q70 -83 71 -220zM444 297q0 81 -25 134q-33 71 -105 72t-106 -73q-26 -55 -26 -136q0 -80 25 -136q34 -75 104 -76q133 -1 133 215zM470 620h-84l-68 53
l-69 -53h-83v6l101 98h103l100 -98v-6zM557 798q0 -39 -29 -66l-13 -12q-3 -3 -15 -20q-2 -6 -4 -27h-49q0 5 -1 9q0 33 24 57l14 14q18 18 19 43q1 32 -27 32q-27 0 -31 -36l-42 5q6 68 78 68q76 0 76 -67z" />
    <glyph glyph-name="glyph335" unicode="&#x1ed6;" 
d="M803 400q0 -188 -92 -299q-100 -119 -284 -120t-283 117q-93 110 -94 297q-1 184 93 294q100 116 280 117q181 1 283 -113q97 -110 97 -293zM640 391q0 317 -216 317q-116 0 -170 -103q-41 -79 -42 -207q-1 -130 40 -211q53 -105 171 -106q119 -1 174 101q43 79 43 209z
M575 822h-84l-68 53l-69 -53h-83v6l101 98h103l100 -98v-6zM570 1033q-11 -38 -40.5 -62.5t-68.5 -24.5q-17 0 -63 30q-11 7 -31 8q-31 1 -46 -31l-44 2q13 37 43.5 62.5t67.5 25.5q23 -4 39 -12q10 -7 31 -21q6 -3 24 -7q24 -2 47 32z" />
    <glyph glyph-name="glyph336" unicode="&#x1ed7;" horiz-adv-x="628" 
d="M598 291q1 -135 -73 -218q-77 -87 -210 -88q-135 -1 -212 89q-73 86 -73 223t76 219.5t212 83.5q134 1 209 -89q70 -83 71 -220zM444 297q0 81 -25 134q-33 71 -105 72t-106 -73q-26 -55 -26 -136q0 -80 25 -136q34 -75 104 -76q133 -1 133 215zM470 620h-84l-68 53
l-69 -53h-83v6l101 98h103l100 -98v-6zM465 831q-11 -38 -40.5 -62.5t-68.5 -24.5q-17 0 -63 30q-11 7 -31 8q-31 1 -46 -31l-44 2q13 37 43.5 62.5t67.5 25.5q23 -4 39 -12q10 -7 31 -21q6 -3 24 -7q24 -2 47 32z" />
    <glyph glyph-name="glyph337" unicode="&#x1ed8;" 
d="M803 400q0 -188 -92 -299q-100 -119 -284 -120t-283 117q-93 110 -94 297q-1 184 93 294q100 116 280 117q181 1 283 -113q97 -110 97 -293zM640 391q0 317 -216 317q-116 0 -170 -103q-41 -79 -42 -207q-1 -130 40 -211q53 -105 171 -106q119 -1 174 101q43 79 43 209z
M575 822h-84l-68 53l-69 -53h-83v6l101 98h103l100 -98v-6zM487 -175h-119v116h119v-116z" />
    <glyph glyph-name="glyph338" unicode="&#x1ed9;" horiz-adv-x="628" 
d="M598 291q1 -135 -73 -218q-77 -87 -210 -88q-135 -1 -212 89q-73 86 -73 223t76 219.5t212 83.5q134 1 209 -89q70 -83 71 -220zM444 297q0 81 -25 134q-33 71 -105 72t-106 -73q-26 -55 -26 -136q0 -80 25 -136q34 -75 104 -76q133 -1 133 215zM470 620h-84l-68 53
l-69 -53h-83v6l101 98h103l100 -98v-6zM375 -171h-119v116h119v-116z" />
    <glyph glyph-name="glyph339" unicode="&#x1eda;" 
d="M640 391q0 317 -216 317q-116 0 -170 -103q-41 -79 -42 -207q-1 -130 40 -211q53 -105 171 -106q119 -1 174 101q43 79 43 209zM664 731q36 24 36 42q0 8 -19 20t-19 33q0 20 15.5 36.5t35.5 16.5q24 0 40.5 -19.5t16.5 -44.5q0 -35 -32 -61q-27 -22 -65 -31
q130 -104 130 -323q0 -188 -92 -299q-100 -119 -284 -120t-283 117q-93 110 -94 297q-1 184 93 294q99 116 280 117q146 1 241 -75zM595 955l-142 -109h-60l88 122h114v-13z" />
    <glyph glyph-name="glyph340" unicode="&#x1edb;" horiz-adv-x="628" 
d="M444 297q0 81 -25 134q-33 71 -105 72t-106 -73q-26 -55 -26 -136q0 -80 25 -136q34 -75 104 -76q133 -1 133 215zM446 573q41 10 40 27q0 4 -8.5 14t-8.5 21q0 16 14 27t30 11q19 0 30 -16.5t9 -35.5q-3 -31 -32 -46q-25 -13 -58 -11q135 -81 136 -273q1 -135 -73 -218
q-77 -87 -210 -88q-135 -1 -212 89q-73 86 -73 223q0 138 76 220t212 83q71 1 128 -27zM490 749l-142 -109h-60l88 122h114v-13z" />
    <glyph glyph-name="glyph341" unicode="&#x1edc;" 
d="M640 391q0 317 -216 317q-116 0 -170 -103q-41 -79 -42 -207q-1 -130 40 -211q53 -105 171 -106q119 -1 174 101q43 79 43 209zM664 731q36 24 36 42q0 8 -19 20t-19 33q0 20 15.5 36.5t35.5 16.5q24 0 40.5 -19.5t16.5 -44.5q0 -35 -32 -61q-27 -22 -65 -31
q130 -104 130 -323q0 -188 -92 -299q-100 -119 -284 -120t-283 117q-93 110 -94 297q-1 184 93 294q99 116 280 117q146 1 241 -75zM453 846h-60l-142 109v13h114z" />
    <glyph glyph-name="glyph342" unicode="&#x1edd;" horiz-adv-x="628" 
d="M444 297q0 81 -25 134q-33 71 -105 72t-106 -73q-26 -55 -26 -136q0 -80 25 -136q34 -75 104 -76q133 -1 133 215zM446 573q41 10 40 27q0 4 -8.5 14t-8.5 21q0 16 14 27t30 11q19 0 30 -16.5t9 -35.5q-3 -31 -32 -46q-25 -13 -58 -11q135 -81 136 -273q1 -135 -73 -218
q-77 -87 -210 -88q-135 -1 -212 89q-73 86 -73 223q0 138 76 220t212 83q71 1 128 -27zM348 640h-60l-142 109v13h114z" />
    <glyph glyph-name="glyph343" unicode="&#x1ede;" 
d="M640 391q0 317 -216 317q-116 0 -170 -103q-41 -79 -42 -207q-1 -130 40 -211q53 -105 171 -106q119 -1 174 101q43 79 43 209zM664 731q36 24 36 42q0 8 -19 20t-19 33q0 20 15.5 36.5t35.5 16.5q24 0 40.5 -19.5t16.5 -44.5q0 -35 -32 -61q-27 -22 -65 -31
q130 -104 130 -323q0 -188 -92 -299q-100 -119 -284 -120t-283 117q-93 110 -94 297q-1 184 93 294q99 116 280 117q146 1 241 -75zM507 961q0 -39 -29 -66l-13 -12q-3 -3 -15 -20q-2 -6 -4 -27h-49q0 5 -1 9q0 33 24 57l14 14q18 18 19 43q1 32 -27 32q-27 0 -31 -36l-42 5
q6 68 78 68q76 0 76 -67z" />
    <glyph glyph-name="glyph344" unicode="&#x1edf;" horiz-adv-x="628" 
d="M444 297q0 81 -25 134q-33 71 -105 72t-106 -73q-26 -55 -26 -136q0 -80 25 -136q34 -75 104 -76q133 -1 133 215zM446 573q41 10 40 27q0 4 -8.5 14t-8.5 21q0 16 14 27t30 11q19 0 30 -16.5t9 -35.5q-3 -31 -32 -46q-25 -13 -58 -11q135 -81 136 -273q1 -135 -73 -218
q-77 -87 -210 -88q-135 -1 -212 89q-73 86 -73 223q0 138 76 220t212 83q71 1 128 -27zM402 755q0 -39 -29 -66l-13 -12q-3 -3 -15 -20q-2 -6 -4 -27h-49q0 5 -1 9q0 33 24 57l14 14q18 18 19 43q1 32 -27 32q-27 0 -31 -36l-42 5q6 68 78 68q76 0 76 -67z" />
    <glyph glyph-name="glyph345" unicode="&#x1ee0;" 
d="M640 391q0 317 -216 317q-116 0 -170 -103q-41 -79 -42 -207q-1 -130 40 -211q53 -105 171 -106q119 -1 174 101q43 79 43 209zM664 731q36 24 36 42q0 8 -19 20t-19 33q0 20 15.5 36.5t35.5 16.5q24 0 40.5 -19.5t16.5 -44.5q0 -35 -32 -61q-27 -22 -65 -31
q130 -104 130 -323q0 -188 -92 -299q-100 -119 -284 -120t-283 117q-93 110 -94 297q-1 184 93 294q99 116 280 117q146 1 241 -75zM570 929q-11 -38 -40.5 -62.5t-68.5 -24.5q-17 0 -63 30q-11 7 -31 8q-31 1 -46 -31l-44 2q13 37 43.5 62.5t67.5 25.5q23 -4 39 -12
q10 -7 31 -21q6 -3 24 -7q24 -2 47 32z" />
    <glyph glyph-name="glyph346" unicode="&#x1ee1;" horiz-adv-x="628" 
d="M444 297q0 81 -25 134q-33 71 -105 72t-106 -73q-26 -55 -26 -136q0 -80 25 -136q34 -75 104 -76q133 -1 133 215zM446 573q41 10 40 27q0 4 -8.5 14t-8.5 21q0 16 14 27t30 11q19 0 30 -16.5t9 -35.5q-3 -31 -32 -46q-25 -13 -58 -11q135 -81 136 -273q1 -135 -73 -218
q-77 -87 -210 -88q-135 -1 -212 89q-73 86 -73 223q0 138 76 220t212 83q71 1 128 -27zM465 727q-11 -38 -40.5 -62.5t-68.5 -24.5q-17 0 -63 30q-11 7 -31 8q-31 1 -46 -31l-44 2q13 37 43.5 62.5t67.5 25.5q23 -4 39 -12q10 -7 31 -21q6 -3 24 -7q24 -2 47 32z" />
    <glyph glyph-name="glyph347" unicode="&#x1ee2;" 
d="M640 391q0 317 -216 317q-116 0 -170 -103q-41 -79 -42 -207q-1 -130 40 -211q53 -105 171 -106q119 -1 174 101q43 79 43 209zM664 731q36 24 36 42q0 8 -19 20t-19 33q0 20 15.5 36.5t35.5 16.5q24 0 40.5 -19.5t16.5 -44.5q0 -35 -32 -61q-27 -22 -65 -31
q130 -104 130 -323q0 -188 -92 -299q-100 -119 -284 -120t-283 117q-93 110 -94 297q-1 184 93 294q99 116 280 117q146 1 241 -75zM487 -175h-119v116h119v-116z" />
    <glyph glyph-name="glyph348" unicode="&#x1ee3;" horiz-adv-x="628" 
d="M444 297q0 81 -25 134q-33 71 -105 72t-106 -73q-26 -55 -26 -136q0 -80 25 -136q34 -75 104 -76q133 -1 133 215zM446 573q41 10 40 27q0 4 -8.5 14t-8.5 21q0 16 14 27t30 11q19 0 30 -16.5t9 -35.5q-3 -31 -32 -46q-25 -13 -58 -11q135 -81 136 -273q1 -135 -73 -218
q-77 -87 -210 -88q-135 -1 -212 89q-73 86 -73 223q0 138 76 220t212 83q71 1 128 -27zM375 -171h-119v116h119v-116z" />
    <glyph glyph-name="glyph349" unicode="&#x1ee4;" horiz-adv-x="791" 
d="M775 681h-79v-390q0 -308 -305 -310q-196 -1 -266 146q-30 63 -30 136v418h-77v98h325v-98h-97v-395q0 -79 17 -116q39 -85 141 -86q154 -2 154 202v395h-95v98h312v-98zM451 -175h-119v116h119v-116z" />
    <glyph glyph-name="glyph350" unicode="&#x1ee5;" horiz-adv-x="689" 
d="M657 0h-212v104q-35 -116 -174 -116q-110 0 -155 83q-21 39 -21 117v302h-75v92h223v-368q0 -120 85 -121q107 -1 107 170v227h-79v92h226v-488h75v-94zM400 -168h-119v116h119v-116z" />
    <glyph glyph-name="glyph351" unicode="&#x1ee6;" horiz-adv-x="791" 
d="M775 681h-79v-390q0 -308 -305 -310q-196 -1 -266 146q-30 63 -30 136v418h-77v98h325v-98h-97v-395q0 -79 17 -116q39 -85 141 -86q154 -2 154 202v395h-95v98h312v-98zM487 917q0 -39 -29 -66l-13 -12q-3 -3 -15 -20q-2 -6 -4 -27h-49q0 5 -1 9q0 33 24 57l14 14
q18 18 19 43q1 32 -27 32q-27 0 -31 -36l-42 5q6 68 78 68q76 0 76 -67z" />
    <glyph glyph-name="glyph352" unicode="&#x1ee7;" horiz-adv-x="689" 
d="M657 0h-212v104q-35 -116 -174 -116q-110 0 -155 83q-21 39 -21 117v302h-75v92h223v-368q0 -120 85 -121q107 -1 107 170v227h-79v92h226v-488h75v-94zM423 735q0 -39 -29 -66l-13 -12q-3 -3 -15 -20q-2 -6 -4 -27h-49q0 5 -1 9q0 33 24 57l14 14q18 18 19 43
q1 32 -27 32q-27 0 -31 -36l-42 5q6 68 78 68q76 0 76 -67z" />
    <glyph glyph-name="glyph353" unicode="&#x1ee8;" horiz-adv-x="791" 
d="M696 681v-390q0 -308 -305 -310q-196 -1 -266 146q-30 63 -30 136v418h-77v98h325v-98h-97v-395q0 -79 17 -116q39 -85 141 -86q154 -2 154 202v395h-95v98q117 2 233 -3q10 0 30.5 -6t30.5 -6q8 0 8 4t-6 11q-3 3 -19 13q-11 7 -16 21q-2 6 -2 13q0 21 15.5 37.5
t36.5 16.5q23 0 40 -19t17 -42q0 -35 -37 -64q-29 -22 -69 -33q-29 -18 -29 -41zM575 911l-142 -109h-60l88 122h114v-13z" />
    <glyph glyph-name="glyph354" unicode="&#x1ee9;" horiz-adv-x="689" 
d="M582 564v-470h75v-94h-212v104q-35 -116 -174 -116q-110 0 -155 83q-21 39 -21 117v302h-75v92h223v-368q0 -120 85 -121q107 -1 107 170v227h-79v92h226q14 7 14 18q0 4 -8.5 14t-8.5 21q0 16 14 27t30 11q19 0 30 -16.5t9 -35.5q-6 -57 -80 -57zM512 729l-142 -109h-60
l88 122h114v-13z" />
    <glyph glyph-name="glyph355" unicode="&#x1eea;" horiz-adv-x="791" 
d="M696 681v-390q0 -308 -305 -310q-196 -1 -266 146q-30 63 -30 136v418h-77v98h325v-98h-97v-395q0 -79 17 -116q39 -85 141 -86q154 -2 154 202v395h-95v98q117 2 233 -3q10 0 30.5 -6t30.5 -6q8 0 8 4t-6 11q-3 3 -19 13q-11 7 -16 21q-2 6 -2 13q0 21 15.5 37.5
t36.5 16.5q23 0 40 -19t17 -42q0 -35 -37 -64q-29 -22 -69 -33q-29 -18 -29 -41zM432 802h-60l-142 109v13h114z" />
    <glyph glyph-name="glyph356" unicode="&#x1eeb;" horiz-adv-x="689" 
d="M582 564v-470h75v-94h-212v104q-35 -116 -174 -116q-110 0 -155 83q-21 39 -21 117v302h-75v92h223v-368q0 -120 85 -121q107 -1 107 170v227h-79v92h226q14 7 14 18q0 4 -8.5 14t-8.5 21q0 16 14 27t30 11q19 0 30 -16.5t9 -35.5q-6 -57 -80 -57zM369 620h-60l-142 109
v13h114z" />
    <glyph glyph-name="glyph357" unicode="&#x1eec;" horiz-adv-x="791" 
d="M696 681v-390q0 -308 -305 -310q-196 -1 -266 146q-30 63 -30 136v418h-77v98h325v-98h-97v-395q0 -79 17 -116q39 -85 141 -86q154 -2 154 202v395h-95v98q117 2 233 -3q10 0 30.5 -6t30.5 -6q8 0 8 4t-6 11q-3 3 -19 13q-11 7 -16 21q-2 6 -2 13q0 21 15.5 37.5
t36.5 16.5q23 0 40 -19t17 -42q0 -35 -37 -64q-29 -22 -69 -33q-29 -18 -29 -41zM487 917q0 -39 -29 -66l-13 -12q-3 -3 -15 -20q-2 -6 -4 -27h-49q0 5 -1 9q0 33 24 57l14 14q18 18 19 43q1 32 -27 32q-27 0 -31 -36l-42 5q6 68 78 68q76 0 76 -67z" />
    <glyph glyph-name="glyph358" unicode="&#x1eed;" horiz-adv-x="689" 
d="M582 564v-470h75v-94h-212v104q-35 -116 -174 -116q-110 0 -155 83q-21 39 -21 117v302h-75v92h223v-368q0 -120 85 -121q107 -1 107 170v227h-79v92h226q14 7 14 18q0 4 -8.5 14t-8.5 21q0 16 14 27t30 11q19 0 30 -16.5t9 -35.5q-6 -57 -80 -57zM423 735q0 -39 -29 -66
l-13 -12q-3 -3 -15 -20q-2 -6 -4 -27h-49q0 5 -1 9q0 33 24 57l14 14q18 18 19 43q1 32 -27 32q-27 0 -31 -36l-42 5q6 68 78 68q76 0 76 -67z" />
    <glyph glyph-name="glyph359" unicode="&#x1eee;" horiz-adv-x="791" 
d="M696 681v-390q0 -308 -305 -310q-196 -1 -266 146q-30 63 -30 136v418h-77v98h325v-98h-97v-395q0 -79 17 -116q39 -85 141 -86q154 -2 154 202v395h-95v98q117 2 233 -3q10 0 30.5 -6t30.5 -6q8 0 8 4t-6 11q-3 3 -19 13q-11 7 -16 21q-2 6 -2 13q0 21 15.5 37.5
t36.5 16.5q23 0 40 -19t17 -42q0 -35 -37 -64q-29 -22 -69 -33q-29 -18 -29 -41zM549 889q-11 -38 -40.5 -62.5t-68.5 -24.5q-17 0 -63 30q-11 7 -31 8q-31 1 -46 -31l-44 2q13 37 43.5 62.5t67.5 25.5q23 -4 39 -12q10 -7 31 -21q6 -3 24 -7q24 -2 47 32z" />
    <glyph glyph-name="glyph360" unicode="&#x1eef;" horiz-adv-x="689" 
d="M582 564v-470h75v-94h-212v104q-35 -116 -174 -116q-110 0 -155 83q-21 39 -21 117v302h-75v92h223v-368q0 -120 85 -121q107 -1 107 170v227h-79v92h226q14 7 14 18q0 4 -8.5 14t-8.5 21q0 16 14 27t30 11q19 0 30 -16.5t9 -35.5q-6 -57 -80 -57zM486 707
q-11 -38 -40.5 -62.5t-68.5 -24.5q-17 0 -63 30q-11 7 -31 8q-31 1 -46 -31l-44 2q13 37 43.5 62.5t67.5 25.5q23 -4 39 -12q10 -7 31 -21q6 -3 24 -7q24 -2 47 32z" />
    <glyph glyph-name="glyph361" unicode="&#x1ef0;" horiz-adv-x="791" 
d="M696 681v-390q0 -308 -305 -310q-196 -1 -266 146q-30 63 -30 136v418h-77v98h325v-98h-97v-395q0 -79 17 -116q39 -85 141 -86q154 -2 154 202v395h-95v98q117 2 233 -3q10 0 30.5 -6t30.5 -6q8 0 8 4t-6 11q-3 3 -19 13q-11 7 -16 21q-2 6 -2 13q0 21 15.5 37.5
t36.5 16.5q23 0 40 -19t17 -42q0 -35 -37 -64q-29 -22 -69 -33q-29 -18 -29 -41zM451 -175h-119v116h119v-116z" />
    <glyph glyph-name="glyph362" unicode="&#x1ef1;" horiz-adv-x="689" 
d="M582 564v-470h75v-94h-212v104q-35 -116 -174 -116q-110 0 -155 83q-21 39 -21 117v302h-75v92h223v-368q0 -120 85 -121q107 -1 107 170v227h-79v92h226q14 7 14 18q0 4 -8.5 14t-8.5 21q0 16 14 27t30 11q19 0 30 -16.5t9 -35.5q-6 -57 -80 -57zM400 -168h-119v116h119
v-116z" />
    <glyph glyph-name="glyph363" unicode="&#x1ef2;" horiz-adv-x="750" 
d="M735 682h-52l-234 -380v-205h110v-97h-368v97h109v205l-233 380h-51v99h311v-99h-86l142 -250l147 250h-81v99h286v-99zM418 792h-60l-142 109v13h114z" />
    <glyph glyph-name="glyph364" unicode="&#x1ef3;" horiz-adv-x="648" 
d="M634 490h-43l-215 -539q-31 -78 -65 -107q-40 -35 -118 -36q-59 -1 -78 6v102q31 -5 56 -6q32 -1 46 9q13 7 29 40l17 34l-201 497h-46v91h279v-91h-75l75 -196q17 -28 44 -142q11 63 37 136l72 202h-72v91h258v-91zM365 600h-60l-142 109v13h114z" />
    <glyph glyph-name="glyph365" unicode="&#x1ef4;" horiz-adv-x="750" 
d="M735 682h-52l-234 -380v-205h110v-97h-368v97h109v205l-233 380h-51v99h311v-99h-86l142 -250l147 250h-81v99h286v-99zM434 -156h-119v116h119v-116z" />
    <glyph glyph-name="glyph366" unicode="&#x1ef5;" horiz-adv-x="648" 
d="M634 490h-43l-215 -539q-31 -78 -65 -107q-40 -35 -118 -36q-59 -1 -78 6v102q31 -5 56 -6q32 -1 46 9q13 7 29 40l17 34l-201 497h-46v91h279v-91h-75l75 -196q17 -28 44 -142q11 63 37 136l72 202h-72v91h258v-91zM525 -168h-119v116h119v-116z" />
    <glyph glyph-name="glyph367" unicode="&#x1ef6;" horiz-adv-x="750" 
d="M735 682h-52l-234 -380v-205h110v-97h-368v97h109v205l-233 380h-51v99h311v-99h-86l142 -250l147 250h-81v99h286v-99zM472 907q0 -39 -29 -66l-13 -12q-3 -3 -15 -20q-2 -6 -4 -27h-49q0 5 -1 9q0 33 24 57l14 14q18 18 19 43q1 32 -27 32q-27 0 -31 -36l-42 5
q6 68 78 68q76 0 76 -67z" />
    <glyph glyph-name="glyph368" unicode="&#x1ef7;" horiz-adv-x="648" 
d="M634 490h-43l-215 -539q-31 -78 -65 -107q-40 -35 -118 -36q-59 -1 -78 6v102q31 -5 56 -6q32 -1 46 9q13 7 29 40l17 34l-201 497h-46v91h279v-91h-75l75 -196q17 -28 44 -142q11 63 37 136l72 202h-72v91h258v-91zM423 715q0 -39 -29 -66l-13 -12q-3 -3 -15 -20
q-2 -6 -4 -27h-49q0 5 -1 9q0 33 24 57l14 14q18 18 19 43q1 32 -27 32q-27 0 -31 -36l-42 5q6 68 78 68q76 0 76 -67z" />
    <glyph glyph-name="glyph369" unicode="&#x1ef8;" horiz-adv-x="750" 
d="M735 682h-52l-234 -380v-205h110v-97h-368v97h109v205l-233 380h-51v99h311v-99h-86l142 -250l147 250h-81v99h286v-99zM535 889q-11 -38 -40.5 -62.5t-68.5 -24.5q-17 0 -63 30q-11 7 -31 8q-31 1 -46 -31l-44 2q13 37 43.5 62.5t67.5 25.5q23 -4 39 -12q10 -7 31 -21
q6 -3 24 -7q24 -2 47 32z" />
    <glyph glyph-name="glyph370" unicode="&#x1ef9;" horiz-adv-x="648" 
d="M634 490h-43l-215 -539q-31 -78 -65 -107q-40 -35 -118 -36q-59 -1 -78 6v102q31 -5 56 -6q32 -1 46 9q13 7 29 40l17 34l-201 497h-46v91h279v-91h-75l75 -196q17 -28 44 -142q11 63 37 136l72 202h-72v91h258v-91zM482 697q-11 -38 -40.5 -62.5t-68.5 -24.5
q-17 0 -63 30q-11 7 -31 8q-31 1 -46 -31l-44 2q13 37 43.5 62.5t67.5 25.5q23 -4 39 -12q10 -7 31 -21q6 -3 24 -7q24 -2 47 32z" />
    <glyph glyph-name="endash" unicode="&#x2013;" horiz-adv-x="728" 
d="M673 0h-647v98h91v585h-91v99h647v-239h-121v140h-288v-239h117v102h103v-298h-103v100h-117v-250h288v150h121v-248zM520 931l-142 -109h-60l88 122h114v-13z" />
    <glyph glyph-name="emdash" unicode="&#x2014;" horiz-adv-x="728" 
d="M673 0h-647v98h91v585h-91v99h647v-239h-121v140h-288v-239h117v102h103v-298h-103v100h-117v-250h288v150h121v-248zM409 -156h-119v116h119v-116z" />
    <glyph glyph-name="quoteleft" unicode="&#x2018;" horiz-adv-x="608" 
d="M575 286q0 -17 -1 -26h-388q10 -183 132 -183q83 0 110 96h139q-13 -94 -85 -145q-64 -45 -164 -46q-135 -2 -209 90q-69 84 -69 222q0 136 65 217q71 88 204 88q265 0 266 -313zM428 345q0 62 -27 108q-31 54 -89 56q-63 2 -101 -71q-20 -39 -22 -93h239zM459 620h-84
l-68 53l-69 -53h-83v6l101 98h103l100 -98v-6zM454 831q-11 -38 -40.5 -62.5t-68.5 -24.5q-17 0 -63 30q-11 7 -31 8q-31 1 -46 -31l-44 2q13 37 43.5 62.5t67.5 25.5q23 -4 39 -12q10 -7 31 -21q6 -3 24 -7q24 -2 47 32z" />
    <glyph glyph-name="quoteright" unicode="&#x2019;" horiz-adv-x="608" 
d="M575 286q0 -17 -1 -26h-388q10 -183 132 -183q83 0 110 96h139q-13 -94 -85 -145q-64 -45 -164 -46q-135 -2 -209 90q-69 84 -69 222q0 136 65 217q71 88 204 88q265 0 266 -313zM428 345q0 62 -27 108q-31 54 -89 56q-63 2 -101 -71q-20 -39 -22 -93h239zM461 620h-84
l-68 53l-69 -53h-83v6l101 98h103l100 -98v-6zM635 782l-142 -109h-60l88 122h114v-13z" />
    <glyph glyph-name="quotesinglbase" unicode="&#x201a;" horiz-adv-x="628" 
d="M598 291q1 -135 -73 -218q-77 -87 -210 -88q-135 -1 -212 89q-73 86 -73 223t76 219.5t212 83.5q134 1 209 -89q70 -83 71 -220zM444 297q0 81 -25 134q-33 71 -105 72t-106 -73q-26 -55 -26 -136q0 -80 25 -136q34 -75 104 -76q133 -1 133 215zM465 727
q-11 -38 -40.5 -62.5t-68.5 -24.5q-17 0 -63 30q-11 7 -31 8q-31 1 -46 -31l-44 2q13 37 43.5 62.5t67.5 25.5q23 -4 39 -12q10 -7 31 -21q6 -3 24 -7q24 -2 47 32z" />
    <glyph glyph-name="quotedblleft" unicode="&#x201c;" horiz-adv-x="608" 
d="M575 286q0 -17 -1 -26h-388q10 -183 132 -183q83 0 110 96h139q-13 -94 -85 -145q-64 -45 -164 -46q-135 -2 -209 90q-69 84 -69 222q0 136 65 217q71 88 204 88q265 0 266 -313zM428 345q0 62 -27 108q-31 54 -89 56q-63 2 -101 -71q-20 -39 -22 -93h239zM461 620h-84
l-68 53l-69 -53h-83v6l101 98h103l100 -98v-6zM185 673h-60l-142 109v13h114z" />
    <glyph glyph-name="quotedblright" unicode="&#x201d;" horiz-adv-x="608" 
d="M575 286q0 -17 -1 -26h-388q10 -183 132 -183q83 0 110 96h139q-13 -94 -85 -145q-64 -45 -164 -46q-135 -2 -209 90q-69 84 -69 222q0 136 65 217q71 88 204 88q265 0 266 -313zM428 345q0 62 -27 108q-31 54 -89 56q-63 2 -101 -71q-20 -39 -22 -93h239zM461 620h-84
l-68 53l-69 -53h-83v6l101 98h103l100 -98v-6zM548 798q0 -39 -29 -66l-13 -12q-3 -3 -15 -20q-2 -6 -4 -27h-49q0 5 -1 9q0 33 24 57l14 14q18 18 19 43q1 32 -27 32q-27 0 -31 -36l-42 5q6 68 78 68q76 0 76 -67z" />
    <glyph glyph-name="quotedblbase" unicode="&#x201e;" horiz-adv-x="628" 
d="M598 291q1 -135 -73 -218q-77 -87 -210 -88q-135 -1 -212 89q-73 86 -73 223t76 219.5t212 83.5q134 1 209 -89q70 -83 71 -220zM444 297q0 81 -25 134q-33 71 -105 72t-106 -73q-26 -55 -26 -136q0 -80 25 -136q34 -75 104 -76q133 -1 133 215zM490 749l-142 -109h-60
l88 122h114v-13z" />
    <glyph glyph-name="dagger" unicode="&#x2020;" horiz-adv-x="628" 
d="M606 0h-200v100q-46 -109 -184 -111q-83 -1 -134 45.5t-52 128.5q-2 120 101 166q59 26 172 27q22 0 80 -2q0 15 1 26q0 132 -95 132q-88 0 -92 -104h-146q10 191 238 192q121 1 178 -55t57 -176v-275h76v-94zM393 265v7h-7l-43 1q-75 2 -111 -16q-49 -25 -50 -92
q-1 -81 81 -82q71 -1 105 69q25 51 25 113zM445 619h-84l-68 53l-69 -53h-83v6l101 98h103l100 -98v-6zM619 781l-142 -109h-60l88 122h114v-13z" />
    <glyph glyph-name="daggerdbl" unicode="&#x2021;" 
d="M803 400q0 -188 -92 -299q-100 -119 -284 -120t-283 117q-93 110 -94 297q-1 184 93 294q100 116 280 117q181 1 283 -113q97 -110 97 -293zM640 391q0 317 -216 317q-116 0 -170 -103q-41 -79 -42 -207q-1 -130 40 -211q53 -105 171 -106q119 -1 174 101q43 79 43 209z
M575 822h-84l-68 53l-69 -53h-83v6l101 98h103l100 -98v-6zM662 1000q0 -39 -29 -66l-13 -12q-3 -3 -15 -20q-2 -6 -4 -27h-49q0 5 -1 9q0 33 24 57l14 14q18 18 19 43q1 32 -27 32q-27 0 -31 -36l-42 5q6 68 78 68q76 0 76 -67z" />
    <glyph glyph-name="bullet" unicode="&#x2022;" 
d="M640 391q0 317 -216 317q-116 0 -170 -103q-41 -79 -42 -207q-1 -130 40 -211q53 -105 171 -106q119 -1 174 101q43 79 43 209zM664 731q36 24 36 42q0 8 -19 20t-19 33q0 20 15.5 36.5t35.5 16.5q24 0 40.5 -19.5t16.5 -44.5q0 -35 -32 -61q-27 -22 -65 -31
q130 -104 130 -323q0 -188 -92 -299q-100 -119 -284 -120t-283 117q-93 110 -94 297q-1 184 93 294q99 116 280 117q146 1 241 -75z" />
    <glyph glyph-name="ellipsis" unicode="&#x2026;" horiz-adv-x="628" 
d="M606 0h-200v100q-46 -109 -184 -111q-83 -1 -134 45.5t-52 128.5q-2 120 101 166q59 26 172 27q22 0 80 -2q0 15 1 26q0 132 -95 132q-88 0 -92 -104h-146q10 191 238 192q121 1 178 -55t57 -176v-275h76v-94zM393 265v7h-7l-43 1q-75 2 -111 -16q-49 -25 -50 -92
q-1 -81 81 -82q71 -1 105 69q25 51 25 113zM445 620h-84l-68 53l-69 -53h-83v6l101 98h103l100 -98v-6zM440 831q-11 -38 -40.5 -62.5t-68.5 -24.5q-17 0 -63 30q-11 7 -31 8q-31 1 -46 -31l-44 2q13 37 43.5 62.5t67.5 25.5q23 -4 39 -12q10 -7 31 -21q6 -3 24 -7
q24 -2 47 32z" />
    <glyph glyph-name="perthousand" unicode="&#x2030;" horiz-adv-x="628" 
d="M598 291q1 -135 -73 -218q-77 -87 -210 -88q-135 -1 -212 89q-73 86 -73 223t76 219.5t212 83.5q134 1 209 -89q70 -83 71 -220zM444 297q0 81 -25 134q-33 71 -105 72t-106 -73q-26 -55 -26 -136q0 -80 25 -136q34 -75 104 -76q133 -1 133 215zM375 -171h-119v116h119
v-116z" />
    <glyph glyph-name="guilsinglleft" unicode="&#x2039;" horiz-adv-x="364" 
d="M333 0h-292v93h76v397h-76v92h225v-489h67v-93zM336 709q-11 -38 -40.5 -62.5t-68.5 -24.5q-17 0 -63 30q-11 7 -31 8q-31 1 -46 -31l-44 2q13 37 43.5 62.5t67.5 25.5q23 -4 39 -12q10 -7 31 -21q6 -3 24 -7q24 -2 47 32z" />
    <glyph glyph-name="guilsinglright" unicode="&#x203a;" horiz-adv-x="364" 
d="M333 0h-292v93h76v397h-76v92h225v-489h67v-93zM362 731l-142 -109h-60l88 122h114v-13z" />
    <glyph glyph-name="fraction" unicode="&#x2044;" horiz-adv-x="728" 
d="M673 0h-647v98h91v585h-91v99h647v-239h-121v140h-288v-239h117v102h103v-298h-103v100h-117v-250h288v150h121v-248zM500 801h-84l-68 53l-69 -53h-83v6l101 98h103l100 -98v-6zM674 963l-142 -109h-60l88 122h114v-13z" />
    <glyph glyph-name="franc" unicode="&#x20a3;" horiz-adv-x="1213" 
d="M654 532h-120v151h-266v-254h105v103h103v-306h-103v107h-105v-235h114v-98h-352v98h92v585h-92v99h624v-250zM1202 450q-25 7 -48 7q-73 0 -109 -62q-28 -50 -28 -129v-173h92v-93h-315v93h78v398h-78v91h214v-124q12 59 54 95.5t102 37.5q18 0 38 -5v-136z" />
    <glyph glyph-name="u20AB" unicode="&#x20ab;" horiz-adv-x="461" 
d="M231 587q-56 0 -99 -103q-23 -57 -23 -105q0 -60 46 -60q48 0 86 83q33 70 33 125q0 60 -43 60zM234 313q-62 -73 -124 -73q-52 0 -80 35q-26 31 -26 85q0 93 64 179q69 92 159 92q40 0 72 -29l23 88h-117l12 43h117l2 18q0 37 -56 38l8 38q79 3 150 17l18 3q7 0 7 -10
q0 -1 -4 -14l-22 -90h76l-11 -43h-77l-80 -328q-6 -24 -6 -31q0 -18 14 -18q7 0 57 49l24 -21q-82 -101 -137 -101q-51 0 -63 73zM11 188h259v-66h-259v66z" />
    <glyph glyph-name="trademark" unicode="&#x2122;" horiz-adv-x="608" 
d="M575 286q0 -17 -1 -26h-388q10 -183 132 -183q83 0 110 96h139q-13 -94 -85 -145q-64 -45 -164 -46q-135 -2 -209 90q-69 84 -69 222q0 136 65 217q71 88 204 88q265 0 266 -313zM428 345q0 62 -27 108q-31 54 -89 56q-63 2 -101 -71q-20 -39 -22 -93h239zM461 620h-84
l-68 53l-69 -53h-83v6l101 98h103l100 -98v-6z" />
    <glyph glyph-name="partialdiff" unicode="&#x2202;" horiz-adv-x="628" 
d="M606 0h-200v100q-46 -109 -184 -111q-83 -1 -134 45.5t-52 128.5q-2 120 101 166q59 26 172 27q22 0 80 -2q0 15 1 26q0 132 -95 132q-88 0 -92 -104h-146q10 191 238 192q121 1 178 -55t57 -176v-275h76v-94zM393 265v7h-7l-43 1q-75 2 -111 -16q-49 -25 -50 -92
q-1 -81 81 -82q71 -1 105 69q25 51 25 113zM379 755q0 -39 -29 -66l-13 -12q-3 -3 -15 -20q-2 -6 -4 -27h-49q0 5 -1 9q0 33 24 57l14 14q18 18 19 43q1 32 -27 32q-26 0 -31 -36l-42 5q6 68 78 68q76 0 76 -67z" />
    <glyph glyph-name="product" unicode="&#x220f;" horiz-adv-x="628" 
d="M606 0h-200v100q-46 -109 -184 -111q-83 -1 -134 45.5t-52 128.5q-2 120 101 166q59 26 172 27q22 0 80 -2q0 15 1 26q0 132 -95 132q-88 0 -92 -104h-146q10 191 238 192q121 1 178 -55t57 -176v-275h76v-94zM393 265v7h-7l-43 1q-75 2 -111 -16q-49 -25 -50 -92
q-1 -81 81 -82q71 -1 105 69q25 51 25 113zM467 749l-142 -109h-60l88 122h114v-13z" />
    <glyph glyph-name="summation" unicode="&#x2211;" horiz-adv-x="628" 
d="M606 0h-200v100q-46 -109 -184 -111q-83 -1 -134 45.5t-52 128.5q-2 120 101 166q59 26 172 27q22 0 80 -2q0 15 1 26q0 132 -95 132q-88 0 -92 -104h-146q10 191 238 192q121 1 178 -55t57 -176v-275h76v-94zM393 265v7h-7l-43 1q-75 2 -111 -16q-49 -25 -50 -92
q-1 -81 81 -82q71 -1 105 69q25 51 25 113zM440 727q-11 -38 -40.5 -62.5t-68.5 -24.5q-17 0 -63 30q-11 7 -31 8q-31 1 -46 -31l-44 2q13 37 43.5 62.5t67.5 25.5q23 -4 39 -12q10 -7 31 -21q6 -3 24 -7q24 -2 47 32z" />
    <glyph glyph-name="minus" unicode="&#x2212;" horiz-adv-x="397" 
d="M336 312h-231v65h67v309q-32 -28 -109 -77v88q67 43 116 85h98v-405h59v-65z" />
    <glyph glyph-name="radical" unicode="&#x221a;" 
d="M833 0h-316v98h94l-50 142h-290l-49 -142h93v-98h-297v98h62l258 684h179l254 -684h62v-98zM523 335l-107 322l-108 -322h215zM580 792h-84l-68 53l-69 -53h-83v6l101 98h103l100 -98v-6zM575 1003q-11 -38 -40.5 -62.5t-68.5 -24.5q-17 0 -63 30q-11 7 -31 8
q-31 1 -46 -31l-44 2q13 37 43.5 62.5t67.5 25.5q23 -4 39 -12q10 -7 31 -21q6 -3 24 -7q24 -2 47 32z" />
    <glyph glyph-name="infinity" unicode="&#x221e;" horiz-adv-x="750" 
d="M735 682h-52l-234 -380v-205h110v-97h-368v97h109v205l-233 380h-51v99h311v-99h-86l142 -250l147 250h-81v99h286v-99zM418 792h-60l-142 109v13h114z" />
    <glyph glyph-name="integral" unicode="&#x222b;" 
d="M580 906q-49 -77 -93 -92q-31 -11 -59 -11q-26 0 -56 10q-48 16 -96 93v6h68q32 -48 84 -48q56 0 83 48h69v-6zM833 0h-316v98h94l-50 142h-290l-49 -142h93v-98h-297v98h62l258 684h179l254 -684h62v-98zM523 335l-107 322l-108 -322h215zM513 1027q0 -39 -29 -66
l-13 -12q-3 -3 -15 -20q-2 -6 -4 -27h-49q0 5 -1 9q0 33 24 57l14 14q18 18 19 43q1 32 -27 32q-26 0 -31 -36l-42 5q6 68 78 68q76 0 76 -67z" />
    <glyph glyph-name="approxequal" unicode="&#x2248;" horiz-adv-x="728" 
d="M673 0h-647v98h91v585h-91v99h647v-239h-121v140h-288v-239h117v102h103v-298h-103v100h-117v-250h288v150h121v-248zM500 802h-84l-68 53l-69 -53h-83v6l101 98h103l100 -98v-6zM224 855h-60l-142 109v13h114z" />
    <glyph glyph-name="approxequal" unicode="&#x22f2;" horiz-adv-x="728" 
d="M673 0h-647v98h91v585h-91v99h647v-239h-121v140h-288v-239h117v102h103v-298h-103v100h-117v-250h288v150h121v-248zM500 802h-84l-68 53l-69 -53h-83v6l101 98h103l100 -98v-6zM224 855h-60l-142 109v13h114z" />
    <glyph glyph-name="notequal" unicode="&#x2260;" horiz-adv-x="689" 
d="M582 564v-470h75v-94h-212v104q-35 -116 -174 -116q-110 0 -155 83q-21 39 -21 117v302h-75v92h223v-368q0 -120 85 -121q107 -1 107 170v227h-79v92h226q14 7 14 18q0 4 -8.5 14t-8.5 21q0 16 14 27t30 11q19 0 30 -16.5t9 -35.5q-6 -57 -80 -57z" />
    <glyph glyph-name="lessequal" unicode="&#x2264;" horiz-adv-x="750" 
d="M735 682h-52l-234 -380v-205h110v-97h-368v97h109v205l-233 380h-51v99h311v-99h-86l142 -250l147 250h-81v99h286v-99zM535 889q-11 -38 -40.5 -62.5t-68.5 -24.5q-17 0 -63 30q-11 7 -31 8q-31 1 -46 -31l-44 2q13 37 43.5 62.5t67.5 25.5q23 -4 39 -12q10 -7 31 -21
q6 -3 24 -7q24 -2 47 32z" />
    <glyph glyph-name="greaterequal" unicode="&#x2265;" horiz-adv-x="750" 
d="M735 682h-52l-234 -380v-205h110v-97h-368v97h109v205l-233 380h-51v99h311v-99h-86l142 -250l147 250h-81v99h286v-99zM560 901l-142 -109h-60l88 122h114v-13z" />
    <glyph glyph-name="SF370000" unicode="&#x255f;" horiz-adv-x="841" 
d="M833 0h-316v98h94l-50 142h-290l-49 -142h93v-98h-297v98h62l258 684h179l254 -684h62v-98zM523 335l-107 322l-108 -322h215z" />
    <glyph glyph-name="SF420000" unicode="&#x2560;" horiz-adv-x="798" 
d="M673 0h-647v98h91v585h-91v99h647v-239h-121v140h-288v-239h117v102h103v-298h-103v100h-117v-250h288v150h121v-248z" />
    <glyph glyph-name="SF190000" unicode="&#x2561;" horiz-adv-x="503" 
d="M364 0h-342v97h95v586h-95v99h342v-99h-94v-586h94v-97z" />
    <glyph glyph-name="SF200000" unicode="&#x2562;" horiz-adv-x="906" 
d="M803 400q0 -188 -92 -299q-100 -119 -284 -120t-283 117q-93 110 -94 297q-1 184 93 294q100 116 280 117q181 1 283 -113q97 -110 97 -293zM640 391q0 317 -216 317q-116 0 -170 -103q-41 -79 -42 -207q-1 -130 40 -211q53 -105 171 -106q119 -1 174 101q43 79 43 209z
" />
    <glyph glyph-name="SF230000" unicode="&#x2563;" horiz-adv-x="950" 
d="M775 681h-79v-390q0 -308 -305 -310q-196 -1 -266 146q-30 63 -30 136v418h-77v98h325v-98h-97v-395q0 -79 17 -116q39 -85 141 -86q154 -2 154 202v395h-95v98h312v-98z" />
    <glyph glyph-name="SF470000" unicode="&#x2564;" horiz-adv-x="819" 
d="M735 682h-52l-234 -380v-205h110v-97h-368v97h109v205l-233 380h-51v99h311v-99h-86l142 -250l147 250h-81v99h286v-99z" />
    <glyph glyph-name="SF480000" unicode="&#x2565;" horiz-adv-x="634" 
d="M606 0h-200v100q-46 -109 -184 -111q-83 -1 -134 45.5t-52 128.5q-2 120 101 166q59 26 172 27q22 0 80 -2q0 15 1 26q0 132 -95 132q-88 0 -92 -104h-146q10 191 238 192q121 1 178 -55t57 -176v-275h76v-94zM393 265v7h-7l-43 1q-75 2 -111 -16q-49 -25 -50 -92
q-1 -81 81 -82q71 -1 105 69q25 51 25 113z" />
    <glyph glyph-name="SF410000" unicode="&#x2566;" horiz-adv-x="505" 
d="M575 286q0 -17 -1 -26h-388q10 -183 132 -183q83 0 110 96h139q-13 -94 -85 -145q-64 -45 -164 -46q-135 -2 -209 90q-69 84 -69 222q0 136 65 217q71 88 204 88q265 0 266 -313zM428 345q0 62 -27 108q-31 54 -89 56q-63 2 -101 -71q-20 -39 -22 -93h239z" />
    <glyph glyph-name="SF450000" unicode="&#x2567;" horiz-adv-x="368" 
d="M252 622h-121v108h121v-108zM333 0h-292v93h76v397h-76v92h225v-489h67v-93z" />
    <glyph glyph-name="SF460000" unicode="&#x2568;" horiz-adv-x="368" 
d="M582 564v-470h75v-94h-212v104q-35 -116 -174 -116q-110 0 -155 83q-21 39 -21 117v302h-75v92h223v-368q0 -120 85 -121q107 -1 107 170v227h-79v92h226q14 7 14 18q0 4 -8.5 14t-8.5 21q0 16 14 27t30 11q19 0 30 -16.5t9 -35.5q-6 -57 -80 -57zM369 620h-60l-142 109
v13h114z" />
    <glyph glyph-name="SF400000" unicode="&#x2569;" horiz-adv-x="584" 
d="M598 291q1 -135 -73 -218q-77 -87 -210 -88q-135 -1 -212 89q-73 86 -73 223t76 219.5t212 83.5q134 1 209 -89q70 -83 71 -220zM444 297q0 81 -25 134q-33 71 -105 72t-106 -73q-26 -55 -26 -136q0 -80 25 -136q34 -75 104 -76q133 -1 133 215z" />
    <glyph glyph-name="SF540000" unicode="&#x256a;" horiz-adv-x="653" 
d="M657 0h-212v104q-35 -116 -174 -116q-110 0 -155 83q-21 39 -21 117v302h-75v92h223v-368q0 -120 85 -121q107 -1 107 170v227h-79v92h226v-488h75v-94z" />
    <glyph glyph-name="SF530000" unicode="&#x256b;" horiz-adv-x="582" 
d="M634 490h-43l-215 -539q-31 -78 -65 -107q-40 -35 -118 -36q-59 -1 -78 6v102q31 -5 56 -6q32 -1 46 9q13 7 29 40l17 34l-201 497h-46v91h279v-91h-75l75 -196q17 -28 44 -142q11 63 37 136l72 202h-72v91h258v-91z" />
    <glyph glyph-name="lozenge" unicode="&#x25ca;" horiz-adv-x="364" 
d="M333 0h-292v93h76v397h-76v92h225v-489h67v-93zM220 622h-60l-142 109v13h114z" />
    <glyph glyph-name="circle" unicode="&#x25cb;" horiz-adv-x="841" 
d="M849 836v-470h75v-94h-212v104q-35 -116 -174 -116q-110 0 -155 83q-21 39 -21 117v302h-75v92h223v-368q0 -120 85 -121q107 -1 107 170v227h-79v92h226q14 7 14 18q0 4 -8.5 14t-8.5 21q0 16 14 27t30 11q19 0 30 -16.5t9 -35.5q-6 -57 -80 -57zM690 1007
q0 -39 -29 -66l-13 -12q-3 -3 -15 -20q-2 -6 -4 -27h-49q0 5 -1 9q0 33 24 57l14 14q18 18 19 43q1 32 -27 32q-27 0 -31 -36l-42 5q6 68 78 68q76 0 76 -67zM835 783q1 -135 -73 -218q-77 -87 -210 -88q-135 -1 -212 89q-73 86 -73 223t76 219.5t212 83.5q134 1 209 -89
q70 -83 71 -220zM681 789q0 81 -25 134q-33 71 -105 72t-106 -73q-26 -55 -26 -136q0 -80 25 -136q34 -75 104 -76q133 -1 133 215zM707 1112h-84l-68 53l-69 -53h-83v6l101 98h103l100 -98v-6z" />
    <glyph glyph-name="H18533" unicode="&#x25cf;" horiz-adv-x="841" 
d="M849 836v-470h75v-94h-212v104q-35 -116 -174 -116q-110 0 -155 83q-21 39 -21 117v302h-75v92h223v-368q0 -120 85 -121q107 -1 107 170v227h-79v92h226q14 7 14 18q0 4 -8.5 14t-8.5 21q0 16 14 27t30 11q19 0 30 -16.5t9 -35.5q-6 -57 -80 -57zM690 1007
q0 -39 -29 -66l-13 -12q-3 -3 -15 -20q-2 -6 -4 -27h-49q0 5 -1 9q0 33 24 57l14 14q18 18 19 43q1 32 -27 32q-27 0 -31 -36l-42 5q6 68 78 68q76 0 76 -67zM1060 1174v-390q0 -308 -305 -310q-196 -1 -266 146q-30 63 -30 136v418h-77v98h325v-98h-97v-395q0 -79 17 -116
q39 -85 141 -86q154 -2 154 202v395h-95v98q117 2 233 -3q10 0 30.5 -6t30.5 -6q8 0 8 4t-6 11q-3 3 -19 13q-11 7 -16 21q-2 6 -2 13q0 21 15.5 37.5t36.5 16.5q23 0 40 -19t17 -42q0 -35 -37 -64q-29 -22 -69 -33q-29 -18 -29 -41zM939 1404l-142 -109h-60l88 122h114v-13
z" />
    <glyph glyph-name="invbullet" unicode="&#x25d8;" horiz-adv-x="841" 
d="M849 836v-470h75v-94h-212v104q-35 -116 -174 -116q-110 0 -155 83q-21 39 -21 117v302h-75v92h223v-368q0 -120 85 -121q107 -1 107 170v227h-79v92h226q14 7 14 18q0 4 -8.5 14t-8.5 21q0 16 14 27t30 11q19 0 30 -16.5t9 -35.5q-6 -57 -80 -57zM690 1007
q0 -39 -29 -66l-13 -12q-3 -3 -15 -20q-2 -6 -4 -27h-49q0 5 -1 9q0 33 24 57l14 14q18 18 19 43q1 32 -27 32q-27 0 -31 -36l-42 5q6 68 78 68q76 0 76 -67zM720 1059q10 34 12 75q1 13 10 15q3 0 9 1q79 13 79 63q0 42 -33 42q-6 0 -16.5 -1.5t-16.5 -1.5q-25 0 -25 21
q0 33 38 33q53 0 87 -29q38 -31 32 -83q-6 -69 -101 -95q-30 -8 -37 -40h-38z" />
    <glyph glyph-name="invcircle" unicode="&#x25d9;" horiz-adv-x="841" 
d="M849 836v-470h75v-94h-212v104q-35 -116 -174 -116q-110 0 -155 83q-21 39 -21 117v302h-75v92h223v-368q0 -120 85 -121q107 -1 107 170v227h-79v92h226q14 7 14 18q0 4 -8.5 14t-8.5 21q0 16 14 27t30 11q19 0 30 -16.5t9 -35.5q-6 -57 -80 -57zM690 1007
q0 -39 -29 -66l-13 -12q-3 -3 -15 -20q-2 -6 -4 -27h-49q0 5 -1 9q0 33 24 57l14 14q18 18 19 43q1 32 -27 32q-27 0 -31 -36l-42 5q6 68 78 68q76 0 76 -67zM904 1056v-470h75v-94h-212v104q-35 -116 -174 -116q-110 0 -155 83q-21 39 -21 117v302h-75v92h223v-368
q0 -120 85 -121q107 -1 107 170v227h-79v92h226q14 7 14 18q0 4 -8.5 14t-8.5 21q0 16 14 27t30 11q19 0 30 -16.5t9 -35.5q-6 -57 -80 -57zM808 1199q-11 -38 -40.5 -62.5t-68.5 -24.5q-17 0 -63 30q-11 7 -31 8q-31 1 -46 -31l-44 2q13 37 43.5 62.5t67.5 25.5
q23 -4 39 -12q10 -7 31 -21q6 -3 24 -7q24 -2 47 32z" />
    <glyph glyph-name="apple" unicode="&#xf000;" 
d="M803 400q0 -188 -92 -299q-100 -119 -284 -120t-283 117q-93 110 -94 297q-1 184 93 294q100 116 280 117q181 1 283 -113q97 -110 97 -293zM640 391q0 317 -216 317q-116 0 -170 -103q-41 -79 -42 -207q-1 -130 40 -211q53 -105 171 -106q119 -1 174 101q43 79 43 209z
M575 822h-84l-68 53l-69 -53h-83v6l101 98h103l100 -98v-6zM570 1033q-11 -38 -40.5 -62.5t-68.5 -24.5q-17 0 -63 30q-11 7 -31 8q-31 1 -46 -31l-44 2q13 37 43.5 62.5t67.5 25.5q23 -4 39 -12q10 -7 31 -21q6 -3 24 -7q24 -2 47 32z" />
    <glyph glyph-name="fi" unicode="&#xf001;" horiz-adv-x="364" 
d="M333 0h-292v93h76v397h-76v92h225v-489h67v-93zM252 622h-121v108h121v-108zM250 -156h-119v116h119v-116z" />
    <glyph glyph-name="fl" unicode="&#xf002;" horiz-adv-x="628" 
d="M598 291q1 -135 -73 -218q-77 -87 -210 -88q-135 -1 -212 89q-73 86 -73 223t76 219.5t212 83.5q134 1 209 -89q70 -83 71 -220zM444 297q0 81 -25 134q-33 71 -105 72t-106 -73q-26 -55 -26 -136q0 -80 25 -136q34 -75 104 -76q133 -1 133 215zM348 640h-60l-142 109v13
h114z" />
    <glyph glyph-name="periodcentered" horiz-adv-x="628" 
d="M598 291q1 -135 -73 -218q-77 -87 -210 -88q-135 -1 -212 89q-73 86 -73 223t76 219.5t212 83.5q134 1 209 -89q70 -83 71 -220zM444 297q0 81 -25 134q-33 71 -105 72t-106 -73q-26 -55 -26 -136q0 -80 25 -136q34 -75 104 -76q133 -1 133 215zM402 755q0 -39 -29 -66
l-13 -12q-3 -3 -15 -20q-2 -6 -4 -27h-49q0 5 -1 9q0 33 24 57l14 14q18 18 19 43q1 32 -27 32q-27 0 -31 -36l-42 5q6 68 78 68q76 0 76 -67z" />
    <glyph glyph-name="HT" horiz-adv-x="352" 
 />
    <glyph glyph-name="nonmarkingreturn" horiz-adv-x="352" 
 />
    <glyph glyph-name="glyph246" horiz-adv-x="326" 
 />
    <glyph glyph-name="glyph247" horiz-adv-x="326" 
 />
    <glyph glyph-name="glyph275" horiz-adv-x="292" 
 />
    <glyph glyph-name="glyph276" horiz-adv-x="292" 
 />
    <glyph glyph-name="glyph261" horiz-adv-x="586" 
d="M297 612q10 34 12 75q1 13 10 15q3 0 9 1q79 13 79 63q0 42 -33 42q-6 0 -16.5 -1.5t-16.5 -1.5q-25 0 -25 21q0 33 38 33q53 0 87 -29q38 -31 32 -83q-6 -69 -101 -95q-30 -8 -37 -40h-38z" />
    <glyph glyph-name="glyph262" horiz-adv-x="634" 
d="M611 564v-470h75v-94h-212v104q-35 -116 -174 -116q-110 0 -155 83q-21 39 -21 117v302h-75v92h223v-368q0 -120 85 -121q107 -1 107 170v227h-79v92h226q14 7 14 18q0 4 -8.5 14t-8.5 21q0 16 14 27t30 11q19 0 30 -16.5t9 -35.5q-6 -57 -80 -57zM452 735q0 -39 -29 -66
l-13 -12q-3 -3 -15 -20q-2 -6 -4 -27h-49q0 5 -1 9q0 33 24 57l14 14q18 18 19 43q1 32 -27 32q-27 0 -31 -36l-42 5q6 68 78 68q76 0 76 -67zM596 513q1 -135 -73 -218q-77 -87 -210 -88q-135 -1 -212 89q-73 86 -73 223t76 219.5t212 83.5q134 1 209 -89q70 -83 71 -220z
M442 519q0 81 -25 134q-33 71 -105 72t-106 -73q-26 -55 -26 -136q0 -80 25 -136q34 -75 104 -76q133 -1 133 215zM468 842h-84l-68 53l-69 -53h-83v6l101 98h103l100 -98v-6z" />
    <glyph glyph-name="glyph263" horiz-adv-x="634" 
d="M611 564v-470h75v-94h-212v104q-35 -116 -174 -116q-110 0 -155 83q-21 39 -21 117v302h-75v92h223v-368q0 -120 85 -121q107 -1 107 170v227h-79v92h226q14 7 14 18q0 4 -8.5 14t-8.5 21q0 16 14 27t30 11q19 0 30 -16.5t9 -35.5q-6 -57 -80 -57zM452 735q0 -39 -29 -66
l-13 -12q-3 -3 -15 -20q-2 -6 -4 -27h-49q0 5 -1 9q0 33 24 57l14 14q18 18 19 43q1 32 -27 32q-27 0 -31 -36l-42 5q6 68 78 68q76 0 76 -67zM823 903v-390q0 -308 -305 -310q-196 -1 -266 146q-30 63 -30 136v418h-77v98h325v-98h-97v-395q0 -79 17 -116q39 -85 141 -86
q154 -2 154 202v395h-95v98q117 2 233 -3q10 0 30.5 -6t30.5 -6q8 0 8 4t-6 11q-3 3 -19 13q-11 7 -16 21q-2 6 -2 13q0 21 15.5 37.5t36.5 16.5q23 0 40 -19t17 -42q0 -35 -37 -64q-29 -22 -69 -33q-29 -18 -29 -41zM702 1133l-142 -109h-60l88 122h114v-13z" />
    <glyph glyph-name="glyph264" horiz-adv-x="634" 
d="M611 564v-470h75v-94h-212v104q-35 -116 -174 -116q-110 0 -155 83q-21 39 -21 117v302h-75v92h223v-368q0 -120 85 -121q107 -1 107 170v227h-79v92h226q14 7 14 18q0 4 -8.5 14t-8.5 21q0 16 14 27t30 11q19 0 30 -16.5t9 -35.5q-6 -57 -80 -57zM452 735q0 -39 -29 -66
l-13 -12q-3 -3 -15 -20q-2 -6 -4 -27h-49q0 5 -1 9q0 33 24 57l14 14q18 18 19 43q1 32 -27 32q-27 0 -31 -36l-42 5q6 68 78 68q76 0 76 -67zM482 787q10 34 12 75q1 13 10 15q3 0 9 1q79 13 79 63q0 42 -33 42q-6 0 -16.5 -1.5t-16.5 -1.5q-25 0 -25 21q0 33 38 33
q53 0 87 -29q38 -31 32 -83q-6 -69 -101 -95q-30 -8 -37 -40h-38z" />
    <glyph glyph-name="glyph265" horiz-adv-x="634" 
d="M611 564v-470h75v-94h-212v104q-35 -116 -174 -116q-110 0 -155 83q-21 39 -21 117v302h-75v92h223v-368q0 -120 85 -121q107 -1 107 170v227h-79v92h226q14 7 14 18q0 4 -8.5 14t-8.5 21q0 16 14 27t30 11q19 0 30 -16.5t9 -35.5q-6 -57 -80 -57zM452 735q0 -39 -29 -66
l-13 -12q-3 -3 -15 -20q-2 -6 -4 -27h-49q0 5 -1 9q0 33 24 57l14 14q18 18 19 43q1 32 -27 32q-27 0 -31 -36l-42 5q6 68 78 68q76 0 76 -67zM666 784v-470h75v-94h-212v104q-35 -116 -174 -116q-110 0 -155 83q-21 39 -21 117v302h-75v92h223v-368q0 -120 85 -121
q107 -1 107 170v227h-79v92h226q14 7 14 18q0 4 -8.5 14t-8.5 21q0 16 14 27t30 11q19 0 30 -16.5t9 -35.5q-6 -57 -80 -57zM570 927q-11 -38 -40.5 -62.5t-68.5 -24.5q-17 0 -63 30q-11 7 -31 8q-31 1 -46 -31l-44 2q13 37 43.5 62.5t67.5 25.5q23 -4 39 -12q10 -7 31 -21
q6 -3 24 -7q24 -2 47 32z" />
    <glyph glyph-name="glyph266" horiz-adv-x="634" 
d="M617 563v-470h75v-94h-212v104q-35 -116 -174 -116q-110 0 -155 83q-21 39 -21 117v302h-75v92h223v-368q0 -120 85 -121q107 -1 107 170v227h-79v92h226q14 7 14 18q0 4 -8.5 14t-8.5 21q0 16 14 27t30 11q19 0 30 -16.5t9 -35.5q-6 -57 -80 -57zM435 -169h-119v116h119
v-116zM688 513q1 -135 -73 -218q-77 -87 -210 -88q-135 -1 -212 89q-73 86 -73 223t76 219.5t212 83.5q134 1 209 -89q70 -83 71 -220zM534 519q0 81 -25 134q-33 71 -105 72t-106 -73q-26 -55 -26 -136q0 -80 25 -136q34 -75 104 -76q133 -1 133 215zM560 842h-84l-68 53
l-69 -53h-83v6l101 98h103l100 -98v-6z" />
    <glyph glyph-name="glyph267" horiz-adv-x="634" 
d="M617 563v-470h75v-94h-212v104q-35 -116 -174 -116q-110 0 -155 83q-21 39 -21 117v302h-75v92h223v-368q0 -120 85 -121q107 -1 107 170v227h-79v92h226q14 7 14 18q0 4 -8.5 14t-8.5 21q0 16 14 27t30 11q19 0 30 -16.5t9 -35.5q-6 -57 -80 -57zM435 -169h-119v116h119
v-116zM760 903v-390q0 -308 -305 -310q-196 -1 -266 146q-30 63 -30 136v418h-77v98h325v-98h-97v-395q0 -79 17 -116q39 -85 141 -86q154 -2 154 202v395h-95v98q117 2 233 -3q10 0 30.5 -6t30.5 -6q8 0 8 4t-6 11q-3 3 -19 13q-11 7 -16 21q-2 6 -2 13q0 21 15.5 37.5
t36.5 16.5q23 0 40 -19t17 -42q0 -35 -37 -64q-29 -22 -69 -33q-29 -18 -29 -41zM639 1133l-142 -109h-60l88 122h114v-13z" />
    <glyph glyph-name="glyph268" horiz-adv-x="634" 
d="M617 563v-470h75v-94h-212v104q-35 -116 -174 -116q-110 0 -155 83q-21 39 -21 117v302h-75v92h223v-368q0 -120 85 -121q107 -1 107 170v227h-79v92h226q14 7 14 18q0 4 -8.5 14t-8.5 21q0 16 14 27t30 11q19 0 30 -16.5t9 -35.5q-6 -57 -80 -57zM435 -169h-119v116h119
v-116zM359 787q10 34 12 75q1 13 10 15q3 0 9 1q79 13 79 63q0 42 -33 42q-6 0 -16.5 -1.5t-16.5 -1.5q-25 0 -25 21q0 33 38 33q53 0 87 -29q38 -31 32 -83q-6 -69 -101 -95q-30 -8 -37 -40h-38z" />
    <glyph glyph-name="glyph269" horiz-adv-x="634" 
d="M617 563v-470h75v-94h-212v104q-35 -116 -174 -116q-110 0 -155 83q-21 39 -21 117v302h-75v92h223v-368q0 -120 85 -121q107 -1 107 170v227h-79v92h226q14 7 14 18q0 4 -8.5 14t-8.5 21q0 16 14 27t30 11q19 0 30 -16.5t9 -35.5q-6 -57 -80 -57zM435 -169h-119v116h119
v-116zM666 784v-470h75v-94h-212v104q-35 -116 -174 -116q-110 0 -155 83q-21 39 -21 117v302h-75v92h223v-368q0 -120 85 -121q107 -1 107 170v227h-79v92h226q14 7 14 18q0 4 -8.5 14t-8.5 21q0 16 14 27t30 11q19 0 30 -16.5t9 -35.5q-6 -57 -80 -57zM570 927
q-11 -38 -40.5 -62.5t-68.5 -24.5q-17 0 -63 30q-11 7 -31 8q-31 1 -46 -31l-44 2q13 37 43.5 62.5t67.5 25.5q23 -4 39 -12q10 -7 31 -21q6 -3 24 -7q24 -2 47 32z" />
    <glyph glyph-name="glyph270" horiz-adv-x="292" 
 />
  </font>
</defs>
</svg>
