<?xml version="1.0" standalone="no"?>
<!DOCTYPE svg PUBLIC "-//W3C//DTD SVG 1.1//EN" "http://www.w3.org/Graphics/SVG/1.1/DTD/svg11.dtd" >
<svg xmlns="http://www.w3.org/2000/svg" xmlns:xlink="http://www.w3.org/1999/xlink" version="1.1">
<metadata>
Created by FontForge 20160405 at Thu Jun 30 05:41:52 2016
 By www-data
(c) Copyright 2005 by Tong Duc Thinh. All Rights Reserved
</metadata>
<defs>
<font id="SFUFunctionCondensed" horiz-adv-x="341" >
  <font-face 
    font-family="SFU Function"
    font-weight="400"
    font-stretch="normal"
    units-per-em="1000"
    panose-1="0 0 4 0 0 0 0 0 0 0"
    ascent="800"
    descent="-200"
    x-height="447"
    cap-height="667"
    bbox="-130 -250 959 1114"
    underline-thickness="79"
    underline-position="-217"
    unicode-range="U+0020-F002"
  />
<missing-glyph horiz-adv-x="500" 
d="M63 0v872h375v-872h-375zM125 63h250v747h-250v-747z" />
    <glyph glyph-name=".notdef" horiz-adv-x="500" 
d="M63 0v872h375v-872h-375zM125 63h250v747h-250v-747z" />
    <glyph glyph-name=".null" horiz-adv-x="0" 
 />
    <glyph glyph-name="glyph2" horiz-adv-x="187" 
 />
    <glyph glyph-name="space" unicode=" " horiz-adv-x="187" 
 />
    <glyph glyph-name="exclam" unicode="!" horiz-adv-x="246" 
d="M167 160h-87v507h87v-507zM176 46q0 -22 -15.5 -37.5t-37.5 -15.5t-37.5 15.5t-15.5 37.5t15.5 37.5t37.5 15.5t37.5 -15.5t15.5 -37.5z" />
    <glyph glyph-name="quotedbl" unicode="&#x22;" horiz-adv-x="334" 
d="M294 667l-19 -261h-63l-19 261h101zM140 667l-18 -261h-64l-18 261h100z" />
    <glyph glyph-name="numbersign" unicode="#" horiz-adv-x="380" 
d="M371 392h-80l-12 -105h61v-74h-71l-26 -213h-71l26 213h-56l-26 -213h-71l26 213h-63v74h73l12 105h-62v74h72l24 201h71l-25 -201h56l25 201h71l-24 -201h70v-74zM220 392h-56l-13 -105h57z" />
    <glyph glyph-name="dollar" unicode="$" horiz-adv-x="379" 
d="M346 184q0 -84 -27 -127q-32 -49 -110 -64v-59h-39v59q-56 7 -83.5 29t-46.5 75l73 35q21 -59 76 -59q72 0 72 103q0 46 -24 75q-13 16 -66 49q-76 48 -102 83q-34 46 -34 124q0 69 33 114q36 49 102 54v59h39v-59q104 -11 129 -100l-68 -34q-16 63 -77 63q-75 0 -75 -90
q0 -52 31 -84q15 -15 76 -55q69 -45 92 -77q29 -41 29 -114z" />
    <glyph glyph-name="percent" unicode="%" horiz-adv-x="513" 
d="M223 512q0 -158 -94 -158q-97 0 -97 158q0 157 97 157q94 0 94 -157zM449 667l-330 -667h-55l330 667h55zM481 147q0 -157 -95 -157q-94 0 -94 157t94 157q95 0 95 -157zM164 511q0 105 -37 105q-35 0 -35 -105t36 -105t36 105zM423 147q0 104 -37 104q-34 0 -34 -104
q0 -105 34 -105q37 0 37 105z" />
    <glyph glyph-name="ampersand" unicode="&#x26;" horiz-adv-x="454" 
d="M434 0h-99l-31 52q-50 -56 -114 -56t-107 48.5t-43 113.5q0 81 92 177q-53 85 -53 158q0 58 37 92.5t95 34.5q53 0 88 -33t35 -86q0 -50 -31 -98q-20 -31 -69 -80l88 -144l55 77l57 -45l-71 -99zM261 499q0 53 -49 53q-22 0 -37 -18t-15 -40q0 -28 14 -56l16 -32l8 -17
q63 66 63 110zM267 113l-93 154q-50 -56 -50 -101q0 -37 19 -64q21 -31 56 -31q34 0 68 42z" />
    <glyph glyph-name="quotesingle" unicode="'" horiz-adv-x="180" 
d="M140 667l-18 -261h-64l-18 261h100z" />
    <glyph glyph-name="parenleft" unicode="(" horiz-adv-x="259" 
d="M219 -171l-87 -23q-82 237 -82 472q0 159 35 313q13 57 47 153l87 -21q-76 -247 -76 -439q0 -218 76 -455z" />
    <glyph glyph-name="parenright" unicode=")" horiz-adv-x="259" 
d="M210 273q0 -165 -35 -313q-14 -59 -47 -154l-88 22q77 248 77 438q0 215 -77 455l88 23q82 -238 82 -471z" />
    <glyph glyph-name="asterisk" unicode="*" horiz-adv-x="380" 
d="M332 616l-116 -34l73 -96l-31 -23l-68 100l-69 -100l-31 23l74 96l-116 34l12 36l114 -40l-3 121h38l-3 -121l114 40z" />
    <glyph glyph-name="plus" unicode="+" horiz-adv-x="380" 
d="M346 304h-118v-118h-75v118h-119v74h119v117h75v-117h118v-74z" />
    <glyph glyph-name="comma" unicode="," horiz-adv-x="187" 
d="M144 72l-86 -235l-45 13l59 243z" />
    <glyph glyph-name="hyphen" unicode="-" horiz-adv-x="157" 
d="M157 195h-157v67h157v-67z" />
    <glyph glyph-name="hyphen" unicode="&#x2010;" horiz-adv-x="157" 
d="M157 195h-157v67h157v-67z" />
    <glyph glyph-name="period" unicode="." horiz-adv-x="187" 
d="M147 47q0 -22 -15.5 -38t-37.5 -16t-38 16t-16 38t16 37.5t38 15.5t37.5 -15.5t15.5 -37.5z" />
    <glyph glyph-name="slash" unicode="/" horiz-adv-x="398" 
d="M425 733l-397 -916h-71l399 916h69z" />
    <glyph glyph-name="zero" unicode="0" horiz-adv-x="379" 
d="M340 333q0 -145 -16 -210q-32 -131 -134 -131q-103 0 -135 131q-16 65 -16 211q0 148 16 211q33 130 135 130t134 -131q16 -65 16 -211zM249 332q0 117 -3 146q-12 117 -57 117t-57 -116q-4 -38 -4 -146q0 -107 4 -146q12 -117 57 -117t57 117q3 29 3 145z" />
    <glyph glyph-name="one" unicode="1" horiz-adv-x="380" 
d="M238 0h-86v590h-66v77h152v-667z" />
    <glyph glyph-name="two" unicode="2" horiz-adv-x="379" 
d="M340 512q0 -81 -54 -201q-30 -67 -56 -116l-18 -34l-18 -33l-26 -51h165v-77h-293q4 7 11 24q10 24 83 173q54 111 72 154q43 105 43 164q0 83 -58 83q-54 0 -54 -103v-45h-88v26q0 97 24 140q33 59 120 59q147 0 147 -163z" />
    <glyph glyph-name="three" unicode="3" horiz-adv-x="379" 
d="M336 188q0 -196 -153 -196q-140 0 -140 158v17h85q-1 -8 -1 -22q0 -74 56 -74q62 0 62 124q0 53 -13 79q-19 36 -67 36q-4 0 -23 -2v77h12q54 0 74 28q16 23 16 80q0 104 -52 104t-52 -89v-20h-85v16q0 83 25 122q32 49 110 49q138 0 138 -173q0 -66 -10 -94
q-16 -44 -64 -64q51 -18 69 -62q13 -31 13 -94z" />
    <glyph glyph-name="four" unicode="4" horiz-adv-x="379" 
d="M341 183h-43v-183h-83v183h-183v77l183 407h83v-415h43v-69zM215 252v279l-113 -279h113z" />
    <glyph glyph-name="five" unicode="5" horiz-adv-x="379" 
d="M336 235q0 -99 -40 -164q-48 -78 -141 -78q-51 0 -110 27l23 80q45 -24 78 -24q51 0 76 53q19 40 19 97q0 125 -110 125q-23 0 -55 -7l39 323h212v-77h-144l-21 -168h8q84 0 127 -53q39 -48 39 -134z" />
    <glyph glyph-name="six" unicode="6" horiz-adv-x="379" 
d="M333 195q0 -203 -142 -203q-88 0 -122 75q-23 51 -23 153q0 117 39 231q25 73 96 216h95l-4 -9q-6 -13 -41 -86q-54 -111 -85 -191q38 29 71 29q73 0 100 -77q16 -46 16 -138zM247 194q0 60 -5 82q-12 52 -51 52q-56 0 -56 -127q0 -131 56 -131t56 124z" />
    <glyph glyph-name="seven" unicode="7" horiz-adv-x="379" 
d="M347 667l-202 -667h-96l185 591h-185v76h298z" />
    <glyph glyph-name="eight" unicode="8" horiz-adv-x="379" 
d="M334 194q0 -202 -144 -202t-144 202q0 69 11 100q17 49 68 68q-44 19 -61 61q-12 31 -12 88q0 80 28 119q33 45 110 45t110 -45q28 -39 28 -119q0 -57 -12 -88q-17 -42 -61 -61q51 -19 68 -68q11 -32 11 -100zM239 504q0 94 -49 94t-49 -93q0 -104 49 -104t49 103z
M245 182q0 131 -55 131q-37 0 -49 -51q-6 -25 -6 -80q0 -111 55 -111t55 111z" />
    <glyph glyph-name="nine" unicode="9" horiz-adv-x="379" 
d="M333 448q0 -155 -77 -320q-7 -15 -30 -63l-32 -65h-95l4 10l5 9l22 44q68 136 101 217q-33 -27 -69 -27q-115 0 -115 200q0 102 22 150q33 72 120 72q89 0 122 -74q22 -50 22 -153zM245 466q0 127 -56 127q-57 0 -57 -127q0 -133 57 -133q56 0 56 133z" />
    <glyph glyph-name="colon" unicode=":" horiz-adv-x="187" 
d="M147 401q0 -22 -15.5 -38t-37.5 -16t-38 16t-16 38t16 37.5t38 15.5t37.5 -15.5t15.5 -37.5zM147 47q0 -22 -15.5 -38t-37.5 -16t-38 16t-16 38t16 37.5t38 15.5t37.5 -15.5t15.5 -37.5z" />
    <glyph glyph-name="semicolon" unicode=";" horiz-adv-x="187" 
d="M148 401q0 -22 -15.5 -38t-37.5 -16t-38 16t-16 38t16 37.5t38 15.5t37.5 -15.5t15.5 -37.5zM144 72l-86 -235l-45 13l59 243z" />
    <glyph glyph-name="less" unicode="&#x3c;" horiz-adv-x="500" 
d="M466 93l-433 208v74l433 207v-86l-341 -159l341 -158v-86z" />
    <glyph glyph-name="equal" unicode="=" horiz-adv-x="380" 
d="M346 355h-312v74h312v-74zM346 252h-312v74h312v-74z" />
    <glyph glyph-name="greater" unicode="&#x3e;" horiz-adv-x="500" 
d="M467 300l-433 -207v86l341 158l-341 159v86l433 -208v-74z" />
    <glyph glyph-name="question" unicode="?" horiz-adv-x="329" 
d="M289 476q0 -83 -10 -115q-19 -60 -82 -65v-141h-78v201q7 -1 19 -1q46 0 60 35q8 20 8 77t-4 79q-10 54 -43 54q-30 0 -37 -39q-2 -11 -2 -61h-80q1 74 12 109q20 64 106 64q82 0 111 -61q20 -42 20 -136zM211 47q0 -22 -15.5 -38t-37.5 -16t-38 16t-16 38t16 37.5
t38 15.5t37.5 -15.5t15.5 -37.5z" />
    <glyph glyph-name="at" unicode="@" horiz-adv-x="655" 
d="M628 378q0 -83 -38 -152q-47 -85 -122 -85q-48 0 -71 52q-37 -54 -85 -54q-62 0 -96 63q-28 51 -28 118q0 74 35 130q41 66 111 66q40 0 74 -43l6 35h71l-27 -226q-3 -25 -3 -47q0 -25 21 -25q41 0 65 68q18 51 18 101q0 99 -61 161.5t-159 62.5q-104 0 -169 -85
q-60 -78 -60 -185q0 -116 64 -190q67 -78 181 -78q53 0 95 14q33 11 87 41l31 -70q-106 -59 -212 -59q-148 0 -239 98q-90 95 -90 244q0 142 85 240q89 102 229 102q128 0 207.5 -84.5t79.5 -212.5zM395 346q0 35 -11 62q-15 37 -45 37q-38 0 -58 -47q-16 -36 -16 -80
q0 -37 9 -66q13 -43 42 -43q38 0 61 52q18 41 18 85z" />
    <glyph glyph-name="A" unicode="A" horiz-adv-x="360" 
d="M359 0h-89l-25 130h-132l-26 -130h-86l145 667h70zM232 199l-20 107q-20 105 -32 231q-13 -127 -38 -252l-17 -86h107z" />
    <glyph glyph-name="B" unicode="B" horiz-adv-x="364" 
d="M326 182q0 -182 -157 -182h-118v667h122q143 0 143 -173q0 -62 -14 -94q-19 -43 -70 -61q55 -23 76 -61q18 -33 18 -96zM229 487q0 108 -76 108q-11 0 -17 -1v-221h6q52 0 72 33q15 25 15 81zM233 191q0 58 -19 83q-22 28 -78 28v-225q59 1 80 29q17 24 17 85z" />
    <glyph glyph-name="C" unicode="C" horiz-adv-x="337" 
d="M313 10q-32 -19 -71 -19q-204 0 -204 331q0 354 200 354q39 0 75 -20v-81q-35 17 -57 17q-79 0 -107 -101q-16 -57 -16 -163q0 -250 127 -250q25 0 53 14v-82z" />
    <glyph glyph-name="D" unicode="D" horiz-adv-x="411" 
d="M373 327q0 -204 -64 -274q-49 -53 -185 -53h-73v667h110q133 0 180 -110q32 -74 32 -230zM279 321q0 122 -13 171q-26 99 -115 99h-10v-513q95 0 123 80q15 43 15 163z" />
    <glyph glyph-name="E" unicode="E" horiz-adv-x="321" 
d="M290 0h-239v667h239v-76h-149v-212h132v-76h-132v-227h149v-76z" />
    <glyph glyph-name="F" unicode="F" horiz-adv-x="309" 
d="M291 591h-150v-211h135v-76h-135v-304h-90v667h240v-76z" />
    <glyph glyph-name="G" unicode="G" horiz-adv-x="412" 
d="M374 351q0 -86 -1 -109q-5 -116 -27 -167q-36 -83 -131 -83q-115 0 -155 122q-22 67 -22 217q0 154 20 221q37 124 155 124q66 0 104 -37q33 -32 52 -100l-84 -35q-18 93 -76 93q-59 0 -74 -112q-4 -30 -4 -153q0 -113 5 -149q15 -108 74 -108q54 0 71 63q8 30 8 106v31
h-78v76h163z" />
    <glyph glyph-name="H" unicode="H" horiz-adv-x="414" 
d="M362 0h-90v330h-131v-330h-90v667h90v-261h131v261h90v-667z" />
    <glyph glyph-name="I" unicode="I" horiz-adv-x="193" 
d="M141 0h-90v667h90v-667z" />
    <glyph glyph-name="J" unicode="J" horiz-adv-x="259" 
d="M207 155q0 -163 -132 -163q-45 0 -77 18v89q38 -22 59 -22q43 0 55 37q5 15 5 73v480h90v-512z" />
    <glyph glyph-name="K" unicode="K" horiz-adv-x="372" 
d="M367 0h-101l-125 344v-344h-90v667h90v-323l125 323h90l-131 -323z" />
    <glyph glyph-name="L" unicode="L" horiz-adv-x="293" 
d="M288 0h-237v667h90v-591h147v-76z" />
    <glyph glyph-name="M" unicode="M" horiz-adv-x="504" 
d="M482 0h-87l-15 226q-2 29 -8 222q0 6 -1 11l-13 -84l-72 -375h-60l-53 252q-22 102 -35 207l-26 -459h-84l55 667h77l58 -272q14 -64 21 -111q4 -23 15 -99q0 8 6 43q4 24 16 99q1 10 7 41l4 16l3 16l52 267h78z" />
    <glyph glyph-name="N" unicode="N" horiz-adv-x="413" 
d="M362 0h-84l-101 300q-9 26 -26 86q-5 17 -22 93q-2 7 -8 34q3 -17 5 -55q1 -30 6 -100q1 -16 3 -67l5 -291h-89v667h84l90 -266q35 -104 68 -241q-9 65 -14 110q-7 67 -7 148v249h90v-667z" />
    <glyph glyph-name="O" unicode="O" horiz-adv-x="423" 
d="M385 317q0 -140 -22 -208q-38 -118 -147 -118q-120 0 -158 130q-20 68 -20 228q0 142 22 210q38 117 149 117q120 0 157 -131q19 -67 19 -228zM291 308q0 146 -2 164q-14 123 -76 123q-51 0 -68 -61q-13 -47 -13 -212q0 -113 5 -145q16 -103 75 -103q57 0 73 95
q6 36 6 139z" />
    <glyph glyph-name="P" unicode="P" horiz-adv-x="351" 
d="M332 488q0 -106 -43 -149t-148 -43v-296h-90v667h118q88 0 127 -46q36 -43 36 -133zM239 476q0 115 -83 115h-15v-218h8q90 0 90 103z" />
    <glyph glyph-name="Q" unicode="Q" horiz-adv-x="423" 
d="M404 -10l-57 -41l-46 66q-39 -24 -86 -24q-119 0 -157 135q-20 71 -20 231q0 141 22 206q38 113 149 113q118 0 156 -131q20 -69 20 -227q0 -180 -38 -250zM291 303q0 142 -3 167q-15 124 -79 124q-58 0 -73 -100q-4 -27 -4 -142q0 -130 4 -161q15 -117 78 -117
q17 0 34 13l-57 82l54 43l37 -53q9 60 9 144z" />
    <glyph glyph-name="R" unicode="R" horiz-adv-x="373" 
d="M354 0h-91l-122 326v-326h-90v667h118q155 0 155 -171q0 -150 -92 -172zM237 476q0 55 -13 81q-19 36 -69 36h-14v-222q54 1 75 25.5t21 79.5z" />
    <glyph glyph-name="S" unicode="S" horiz-adv-x="330" 
d="M305 171q0 -77 -39 -126q-42 -54 -117 -54q-55 0 -97 32v89q47 -35 87 -35q38 0 58 26t20 65q0 40 -23 76q-15 24 -53 61q-61 60 -79 88q-31 48 -31 112q0 75 37 121q40 50 114 50q49 0 91 -23v-88q-41 30 -72 30q-38 0 -60 -25t-22 -63q0 -40 31 -81q18 -24 67 -73
q44 -44 62 -77q26 -48 26 -105z" />
    <glyph glyph-name="T" unicode="T" horiz-adv-x="289" 
d="M291 588h-101v-588h-88v588h-104v79h293v-79z" />
    <glyph glyph-name="U" unicode="U" horiz-adv-x="409" 
d="M358 183q0 -95 -28 -138q-35 -53 -125 -53q-105 0 -138 73q-16 36 -16 131v471h88v-471q0 -62 6 -80q13 -39 61 -39q44 0 57 33q7 18 7 73v484h88v-484z" />
    <glyph glyph-name="V" unicode="V" horiz-adv-x="327" 
d="M329 667l-131 -667h-71l-129 667h89l52 -323q5 -34 25 -179q2 30 7 56q6 31 14 86l17 114l43 246h84z" />
    <glyph glyph-name="W" unicode="W" horiz-adv-x="524" 
d="M522 667l-117 -667h-70l-47 288q-16 97 -26 207q-7 -75 -15 -135l-10 -72l-49 -288h-72l-115 667h87l45 -310q12 -84 20 -170l2 -22l8 81q6 58 18 132l48 289h69l45 -280q21 -132 27 -217q2 27 10 97q4 35 18 139l39 261h85z" />
    <glyph glyph-name="X" unicode="X" horiz-adv-x="332" 
d="M334 0h-90l-44 127q-27 79 -34 122q-6 -40 -34 -128l-39 -121h-95l127 339l-119 328h87l47 -129l22 -69q8 -25 10 -43q9 41 29 104l43 137h90l-123 -328z" />
    <glyph glyph-name="Y" unicode="Y" 
d="M343 667l-116 -380v-287h-90v287l-139 380h95l44 -145q3 -8 10 -31q24 -78 33 -132q13 79 32 157l37 151h94z" />
    <glyph glyph-name="Z" unicode="Z" horiz-adv-x="334" 
d="M328 667l-200 -588h189v-79h-306l202 591h-178v76h293z" />
    <glyph glyph-name="bracketleft" unicode="[" horiz-adv-x="312" 
d="M279 -183h-212v916h212v-77h-121v-762h121v-77z" />
    <glyph glyph-name="backslash" unicode="\" horiz-adv-x="398" 
d="M445 -183h-71l-397 916h69z" />
    <glyph glyph-name="bracketright" unicode="]" horiz-adv-x="312" 
d="M245 -183h-212v77h121v762h-121v77h212v-916z" />
    <glyph glyph-name="asciicircum" unicode="^" horiz-adv-x="500" 
d="M480 358h-93l-138 242l-136 -242h-93l173 311h114z" />
    <glyph glyph-name="underscore" unicode="_" horiz-adv-x="500" 
d="M500 -140h-500v79h500v-79z" />
    <glyph glyph-name="grave" unicode="`" horiz-adv-x="500" 
d="M269 539l-44 -25l-88 119l59 38z" />
    <glyph glyph-name="a" unicode="a" horiz-adv-x="349" 
d="M302 0h-83v58q-31 -65 -83 -65q-106 0 -106 236q0 225 108 225q50 0 81 -57v50h83v-447zM222 223q0 156 -53 156q-38 0 -49 -64q-5 -29 -5 -92q0 -64 5 -91q12 -64 49 -64q53 0 53 155z" />
    <glyph glyph-name="b" unicode="b" horiz-adv-x="349" 
d="M319 229q0 -236 -106 -236q-33 0 -52 17q-15 13 -31 47v-57h-83v733h83v-337q32 58 81 58q108 0 108 -225zM234 224q0 64 -5 91q-12 64 -49 64q-52 0 -52 -155q0 -156 52 -156q38 0 49 64q5 29 5 92z" />
    <glyph glyph-name="c" unicode="c" horiz-adv-x="253" 
d="M229 11q-32 -18 -67 -18q-132 0 -132 227q0 234 133 234q33 0 66 -15v-85q-18 21 -41 21q-68 0 -68 -148q0 -156 67 -156q18 0 42 17v-77z" />
    <glyph glyph-name="d" unicode="d" horiz-adv-x="349" 
d="M302 0h-83v57q-16 -34 -31 -47q-19 -17 -52 -17q-106 0 -106 236q0 225 108 225q49 0 81 -58v337h83v-733zM222 224q0 155 -53 155q-37 0 -49 -64q-5 -27 -5 -91q0 -63 5 -92q11 -64 49 -64q53 0 53 156z" />
    <glyph glyph-name="e" unicode="e" horiz-adv-x="326" 
d="M299 207h-188q3 -143 57 -143q50 0 51 87h77q-9 -158 -129 -158q-137 0 -137 228q0 232 133 232q137 0 136 -246zM215 266q-3 52 -8 72q-11 45 -44 45q-32 0 -44 -46q-4 -15 -8 -71h104z" />
    <glyph glyph-name="f" unicode="f" horiz-adv-x="217" 
d="M213 644q-21 10 -35 10q-30 0 -36 -24q-3 -12 -3 -64v-119h70v-65h-70v-382h-83v382h-41v65h41v156q0 66 17 97q23 42 84 42q25 0 56 -11v-87z" />
    <glyph glyph-name="g" unicode="g" horiz-adv-x="349" 
d="M303 -14q0 -69 -11 -102q-24 -72 -127 -72q-61 0 -95 34t-34 95q0 3 1 12h80q0 -72 53 -72q34 0 44 29q6 17 6 58v87q-27 -62 -81 -62q-109 0 -109 225q0 97 13 145q25 91 94 91q51 0 83 -60v53h83v-461zM221 219q0 160 -54 160q-52 0 -52 -153q0 -69 5 -94
q13 -64 53 -64q35 0 44 63q4 28 4 88z" />
    <glyph glyph-name="h" unicode="h" horiz-adv-x="358" 
d="M312 0h-83v299q0 83 -48 83q-51 0 -51 -93v-289h-83v733h83v-338q36 59 91 59q62 0 82 -52q9 -24 9 -84v-318z" />
    <glyph glyph-name="i" unicode="i" horiz-adv-x="176" 
d="M141 581q0 -23 -16.5 -39.5t-39.5 -16.5t-39.5 16.5t-16.5 39.5t16.5 39.5t39.5 16.5t39.5 -16.5t16.5 -39.5zM130 0h-83v447h83v-447z" />
    <glyph glyph-name="j" unicode="j" horiz-adv-x="176" 
d="M141 581q0 -23 -16.5 -39.5t-39.5 -16.5t-39.5 16.5t-16.5 39.5t16.5 39.5t39.5 16.5t39.5 -16.5t16.5 -39.5zM130 -183h-83v630h83v-630z" />
    <glyph glyph-name="k" unicode="k" horiz-adv-x="346" 
d="M343 0h-97l-116 237v-237h-83v733h83v-485l105 199h93l-114 -199z" />
    <glyph glyph-name="l" unicode="l" horiz-adv-x="176" 
d="M130 0h-83v733h83v-733z" />
    <glyph glyph-name="m" unicode="m" horiz-adv-x="540" 
d="M494 0h-83v294q0 40 -5 56q-9 29 -40 29q-34 0 -45 -28q-6 -16 -6 -57v-294h-85v294q0 40 -6 57q-10 28 -43 28q-51 0 -51 -85v-294h-83v447h83v-55q34 62 90 62q61 0 84 -62q33 62 93 62q97 0 97 -98v-356z" />
    <glyph glyph-name="n" unicode="n" horiz-adv-x="358" 
d="M312 0h-83v299q0 83 -48 83q-51 0 -51 -93v-289h-83v447h83v-51q36 58 91 58q62 0 82 -52q9 -24 9 -84v-318z" />
    <glyph glyph-name="o" unicode="o" 
d="M311 221q0 -228 -140 -228q-141 0 -141 228q0 233 141 233q140 0 140 -233zM226 222q0 63 -5 92q-11 65 -48 65q-39 0 -50 -65q-4 -24 -4 -92q0 -62 5 -90q11 -62 49 -62q37 0 48 63q5 28 5 89z" />
    <glyph glyph-name="p" unicode="p" horiz-adv-x="349" 
d="M319 218q0 -225 -108 -225q-51 0 -81 58v-234h-83v630h83v-57q30 64 83 64q106 0 106 -236zM234 224q0 64 -5 91q-12 64 -49 64q-53 0 -53 -155q0 -156 53 -156q38 0 49 64q5 29 5 92z" />
    <glyph glyph-name="q" unicode="q" horiz-adv-x="349" 
d="M302 -183h-83v234q-30 -58 -81 -58q-108 0 -108 225q0 236 106 236q53 0 83 -64v57h83v-630zM222 224q0 155 -53 155q-37 0 -49 -64q-5 -27 -5 -91q0 -63 5 -92q11 -64 49 -64q53 0 53 156z" />
    <glyph glyph-name="r" unicode="r" horiz-adv-x="236" 
d="M226 371q-7 1 -15 1q-47 0 -66 -28q-15 -23 -15 -73v-271h-83v447h83v-56q36 63 96 67v-87z" />
    <glyph glyph-name="s" unicode="s" horiz-adv-x="260" 
d="M240 126q0 -60 -34.5 -96.5t-93.5 -36.5q-35 0 -72 21v80q37 -26 67 -26q57 0 57 57q0 28 -50 72q-61 54 -71 70q-18 29 -18 69q0 54 32.5 88t86.5 34q40 0 75 -20v-77q-29 22 -63 22q-23 0 -38 -14t-15 -36q0 -32 58 -76q43 -33 58 -55q21 -31 21 -76z" />
    <glyph glyph-name="t" unicode="t" horiz-adv-x="196" 
d="M184 383h-45v-383h-83v383h-45v64h45v125h83v-125h45v-64z" />
    <glyph glyph-name="u" unicode="u" horiz-adv-x="359" 
d="M313 180q0 -96 -16 -128q-30 -59 -118 -59q-75 0 -106 44q-26 37 -26 115v295h83v-267q0 -56 5 -76q8 -32 45 -32q42 0 48 39q2 13 2 69v267h83v-267z" />
    <glyph glyph-name="v" unicode="v" horiz-adv-x="300" 
d="M296 447l-117 -447h-55l-121 447h88l33 -141q18 -77 28 -197q0 -3 13 82q8 55 21 115l30 141h80z" />
    <glyph glyph-name="w" unicode="w" horiz-adv-x="449" 
d="M442 447l-105 -447h-57l-34 171q-11 56 -18 133q0 4 -2 24q-3 -47 -8 -78q0 -3 -6 -45q-1 -6 -5 -27l-34 -178h-57l-109 447h87l25 -144q15 -86 24 -177q5 57 24 156l31 165h59l29 -165q11 -63 22 -156q11 95 22 156l31 165h81z" />
    <glyph glyph-name="x" unicode="x" horiz-adv-x="332" 
d="M329 0h-99l-39 86q-15 33 -20 46q-11 28 -14 49q-4 -32 -28 -88l-40 -93h-86l112 236l-112 211h97l40 -86q15 -32 23 -67q8 32 25 74l32 79h87l-101 -211z" />
    <glyph glyph-name="y" unicode="y" horiz-adv-x="326" 
d="M322 447l-182 -630h-87l69 219l-119 411h93l66 -312l77 312h83z" />
    <glyph glyph-name="z" unicode="z" horiz-adv-x="298" 
d="M285 447l-150 -372h142v-75h-264l155 374h-143v73h260z" />
    <glyph glyph-name="braceleft" unicode="{" horiz-adv-x="267" 
d="M254 -184q-17 -1 -31 -1q-134 0 -134 164v179q0 32 -7 47q-10 20 -37 27q-4 1 -12 4v83q4 4 13 6q43 8 43 70v190q0 150 130 150q27 0 35 -4v-81h-24q-39 0 -48 -20q-5 -11 -5 -61v-181q0 -77 -44 -114q27 -27 35.5 -50.5t8.5 -63.5v-179q0 -53 3 -61q9 -23 49 -23h25
v-81z" />
    <glyph glyph-name="bar" unicode="|" horiz-adv-x="500" 
d="M294 -167h-87v834h87v-834z" />
    <glyph glyph-name="braceright" unicode="}" horiz-adv-x="267" 
d="M234 232q-4 -5 -13 -7q-43 -8 -43 -69v-191q0 -150 -130 -150q-29 0 -35 5v81h2q3 0 8 -1h14q39 0 48 20q5 11 5 61v182q0 77 44 113q-27 27 -35.5 51t-8.5 64v179q0 53 -3 61q-9 22 -49 22h-25v81q5 0 13 1h18q134 0 134 -163v-179q0 -64 44 -75l12 -3v-83z" />
    <glyph glyph-name="asciitilde" unicode="~" horiz-adv-x="667" 
d="M575 703q-58 -119 -150 -119q-16 0 -47 10q-18 6 -94 37q-34 14 -58 14q-46 0 -82 -69l-52 33q28 61 51 85q36 38 87 38q39 0 113 -32q67 -29 95 -29q46 0 84 63z" />
    <glyph glyph-name="euro" horiz-adv-x="498" 
d="M522 633l-23 -156l-48 6q0 157 -94 157q-103 0 -161 -211h172l-21 -48h-164q-6 -24 -16 -73h147l-21 -47h-134q-6 -41 -6 -74q0 -56 21 -91q26 -43 78 -43q58 0 101 68q24 38 51 119l55 -10l-54 -188q-77 -53 -159 -53q-111 0 -166 84q-47 71 -47 188h-74l21 47h56
q3 25 12 73h-66l21 48h59q41 112 108 183q83 88 187 88q94 0 165 -67z" />
    <glyph glyph-name="nonbreakingspace" unicode="&#xa0;" horiz-adv-x="500" 
 />
    <glyph glyph-name="exclamdown" unicode="&#xa1;" horiz-adv-x="246" 
d="M176 436q0 -22 -15.5 -37.5t-37.5 -15.5t-37.5 15.5t-15.5 37.5t15.5 37.5t37.5 15.5t37.5 -15.5t15.5 -37.5zM167 -183h-87v506h87v-506z" />
    <glyph glyph-name="cent" unicode="&#xa2;" horiz-adv-x="379" 
d="M286 114q-19 -10 -37 -11v-58h-39v56q-73 20 -98 90q-16 45 -16 140q0 93 15 138q24 72 93 92v62h41v-64q20 -2 41 -10v-78q-15 11 -32 11q-69 0 -69 -148q0 -156 68 -156q12 0 33 9v-73z" />
    <glyph glyph-name="sterling" unicode="&#xa3;" horiz-adv-x="380" 
d="M352 73q-29 -82 -94 -82q-37 0 -91 29q-26 14 -44 14q-21 0 -30 -29l-67 27q4 33 27 56t55 23q7 0 13 -1q18 35 18 67q0 27 -14 64h-82v61h59q-58 126 -58 197q0 81 43 128.5t123 47.5q128 0 137 -132l-70 -33q0 92 -70 92q-38 0 -60.5 -24.5t-22.5 -62.5q0 -44 60 -200
q1 -2 5 -13h91v-61h-76q6 -23 6 -48q0 -53 -23 -102q48 -25 61 -25q21 0 32 31z" />
    <glyph glyph-name="currency" unicode="&#xa4;" horiz-adv-x="667" 
d="M624 128l-49 -50l-98 97q-66 -49 -143 -49q-71 0 -143 48l-97 -96l-49 50l97 97q-49 64 -49 140q0 73 48 141l-98 97l50 50l98 -97q69 49 145 49q71 0 139 -48l97 96l50 -50l-96 -96q48 -72 48 -142q0 -71 -48 -139zM491 365q0 67 -45 113.5t-112 46.5t-112.5 -46.5
t-45.5 -113.5q0 -66 46 -112.5t112 -46.5q67 0 112 46t45 113z" />
    <glyph glyph-name="yen" unicode="&#xa5;" horiz-adv-x="380" 
d="M364 262h-123v-262h-90v262h-135v55h124l-19 52h-105v55h85l-89 243h95l44 -146q3 -8 10 -31q24 -78 33 -132q4 38 13 75l5 20l4 20q0 2 7 27l1 8l2 8l37 151h94l-74 -243h81v-55h-98l-16 -52h114v-55z" />
    <glyph glyph-name="brokenbar" unicode="&#xa6;" horiz-adv-x="500" 
d="M294 330h-87v337h87v-337zM294 -167h-87v320h87v-320z" />
    <glyph glyph-name="section" unicode="&#xa7;" horiz-adv-x="380" 
d="M339 274q0 -141 -81 -173l-5 -2l7 -4q63 -46 63 -135q0 -64 -36 -105t-99 -41q-81 0 -116 77q-12 26 -18 83h75q6 -95 61 -95q31 0 47 29q13 23 13 56q0 68 -86 114q-64 34 -83 59q-41 54 -41 137q0 37 10 80q13 55 34 68q48 29 47 33v3q-2 5 -33 31q-39 33 -39 112
q0 60 37 100.5t96 40.5q76 0 113 -63q16 -27 22 -86h-76q-10 84 -60 84q-30 0 -46 -28q-13 -23 -13 -55q0 -37 24 -66q17 -19 56 -45q78 -51 97 -78q30 -43 30 -131zM266 265q0 145 -77 145q-76 0 -76 -134q0 -132 75 -132q78 0 78 121z" />
    <glyph glyph-name="dieresis" unicode="&#xa8;" horiz-adv-x="500" 
d="M375 567q0 -21 -14.5 -35.5t-35.5 -14.5t-35.5 14.5t-14.5 35.5t14.5 35.5t35.5 14.5t35.5 -14.5t14.5 -35.5zM224 567q0 -21 -14.5 -35.5t-35.5 -14.5t-35.5 14.5t-14.5 35.5t14.5 35.5t35.5 14.5t35.5 -14.5t14.5 -35.5z" />
    <glyph glyph-name="copyright" unicode="&#xa9;" horiz-adv-x="757" 
d="M723 334q0 -146 -99.5 -246.5t-244.5 -100.5q-146 0 -246 100.5t-100 246.5t100 246t246 100q145 0 244.5 -100.5t99.5 -245.5zM669 334q0 125 -83 211t-207 86q-125 0 -209 -86t-84 -211q0 -126 83.5 -212t209.5 -86q124 0 207 86.5t83 211.5zM450 142q-24 -14 -50 -14
q-134 0 -134 198q0 212 131 212q26 0 53 -13v-62q-30 13 -42 13q-70 0 -70 -146q0 -138 72 -138q13 0 31 8q2 1 9 4v-62z" />
    <glyph glyph-name="ordfeminine" unicode="&#xaa;" horiz-adv-x="267" 
d="M215 361h-61v12l-4 -2q-28 -14 -39 -14q-73 0 -73 158q0 104 29 135q21 22 44 22q11 0 39 -14l4 -2v12h61v-307zM234 276h-200v52h200v-52zM157 519q0 99 -28 99q-29 0 -29 -98q0 -109 28 -109q21 0 27 47q2 16 2 61z" />
    <glyph glyph-name="guillemotleft" unicode="&#xab;" horiz-adv-x="326" 
d="M292 406l-101 -172l92 -177l-39 -21l-105 198l114 196zM185 406l-102 -172l95 -177l-42 -21l-103 198l112 196z" />
    <glyph glyph-name="logicalnot" unicode="&#xac;" horiz-adv-x="500" 
d="M466 0h-87v186h-346v81h433v-267z" />
    <glyph glyph-name="sfthyphen" unicode="&#xad;" horiz-adv-x="338" 
d="M8 174l33 122h246l-33 -122h-246z" />
    <glyph glyph-name="registered" unicode="&#xae;" horiz-adv-x="757" 
d="M723 334q0 -146 -99.5 -246.5t-244.5 -100.5q-146 0 -246 100.5t-100 246.5t100 246t246 100q145 0 244.5 -100.5t99.5 -245.5zM669 334q0 125 -83 211t-207 86q-125 0 -209 -86t-84 -211q0 -126 83.5 -212t209.5 -86q124 0 207 86.5t83 211.5zM480 133h-71l-64 161v-161
h-69v400h80q102 0 102 -106q0 -88 -54 -104zM391 416q0 31 -7 44q-10 17 -39 17v-115q46 1 46 54z" />
    <glyph glyph-name="macron" unicode="&#xaf;" horiz-adv-x="499" 
d="M359 536h-218v62h218v-62z" />
    <glyph glyph-name="macron" unicode="&#x2c9;" horiz-adv-x="499" 
d="M359 536h-218v62h218v-62z" />
    <glyph glyph-name="degree" unicode="&#xb0;" horiz-adv-x="380" 
d="M345 523q0 -65 -45 -108.5t-110 -43.5t-110 43.5t-45 108.5q0 64 45 107.5t110 43.5q66 0 110.5 -43t44.5 -108zM275 523q0 36 -24.5 61t-60.5 25t-60.5 -25t-24.5 -61q0 -35 25 -60.5t60 -25.5t60 25.5t25 60.5z" />
    <glyph glyph-name="plusminus" unicode="&#xb1;" horiz-adv-x="380" 
d="M346 304h-118v-118h-75v118h-119v74h119v117h75v-117h118v-74zM346 90h-312v74h312v-74z" />
    <glyph glyph-name="twosuperior" unicode="&#xb2;" horiz-adv-x="253" 
d="M224 572q0 -49 -34 -120q-20 -41 -36 -69l-11 -19l-11 -20l-11 -19q0 -2 -3 -6h102v-52h-193q7 15 62 121q72 137 72 185q0 45 -34 45q-31 0 -31 -57q0 -17 1 -29h-62q-1 9 -1 20q0 58 17 85q22 34 77 34q96 0 96 -99z" />
    <glyph glyph-name="threesuperior" unicode="&#xb3;" horiz-adv-x="253" 
d="M222 381q0 -119 -100 -119q-92 0 -92 97q0 7 1 13h60q-2 -6 -2 -16q-2 -41 32 -41q37 0 37 70q0 65 -47 65l-18 -2v53h11q32 0 42.5 13.5t10.5 46.5q0 58 -29 58q-30 0 -30 -48q0 -10 1 -16h-61v13q0 104 89 104q90 0 90 -105q0 -75 -40 -94q45 -18 45 -92z" />
    <glyph glyph-name="acute" unicode="&#xb4;" horiz-adv-x="500" 
d="M363 633l-88 -119l-44 25l73 132z" />
    <glyph glyph-name="mu" unicode="&#xb5;" horiz-adv-x="359" 
d="M313 180q0 -99 -15 -128q-30 -59 -110 -59q-36 0 -68 16l10 -192h-83v630h83v-283q0 -4 1 -9v-7q0 -76 49 -76q42 0 48 39q2 13 2 69v267h83v-267z" />
    <glyph glyph-name="mu" unicode="&#x3bc;" horiz-adv-x="359" 
d="M313 180q0 -99 -15 -128q-30 -59 -110 -59q-36 0 -68 16l10 -192h-83v630h83v-283q0 -4 1 -9v-7q0 -76 49 -76q42 0 48 39q2 13 2 69v267h83v-267z" />
    <glyph glyph-name="paragraph" unicode="&#xb6;" horiz-adv-x="380" 
d="M373 590h-38v-689h-75v689h-62v-689h-75v437h-13q-55 0 -81 54q-21 42 -21 103q0 172 137 172h228v-77z" />
    <glyph glyph-name="ch270" unicode="&#xb7;" horiz-adv-x="249" 
d="M38 348q0 34 23 57t57 23t57.5 -23t23.5 -57t-23.5 -57.5t-57.5 -23.5t-57 23.5t-23 57.5z" />
    <glyph glyph-name="ch270" unicode="&#x2219;" horiz-adv-x="249" 
d="M38 348q0 34 23 57t57 23t57.5 -23t23.5 -57t-23.5 -57.5t-57.5 -23.5t-57 23.5t-23 57.5z" />
    <glyph glyph-name="cedilla" unicode="&#xb8;" horiz-adv-x="500" 
d="M327 -73l-76 -117l-38 19l55 126z" />
    <glyph glyph-name="onesuperior" unicode="&#xb9;" horiz-adv-x="252" 
d="M170 267h-61v348h-41v52h102v-400z" />
    <glyph glyph-name="ordmasculine" unicode="&#xba;" horiz-adv-x="267" 
d="M228 515q0 -157 -92 -157q-96 0 -96 157t96 157q92 0 92 -157zM234 276h-200v52h200v-52zM165 515q0 99 -30 99q-33 0 -33 -99t33 -99q30 0 30 99z" />
    <glyph glyph-name="guillemotright" unicode="&#xbb;" horiz-adv-x="326" 
d="M292 234l-103 -198l-41 21l95 177l-102 172l40 24zM187 234l-106 -198l-39 21l93 177l-102 172l40 24z" />
    <glyph glyph-name="onequarter" unicode="&#xbc;" horiz-adv-x="630" 
d="M603 108h-27v-108h-59v108h-115v49l116 243h58v-245h27v-47zM508 667l-331 -667h-55l331 667h55zM170 267h-61v348h-41v52h102v-400zM517 155v145l-62 -145h62z" />
    <glyph glyph-name="onehalf" unicode="&#xbd;" horiz-adv-x="631" 
d="M602 304q0 -48 -34 -119q-20 -41 -36 -69l-11 -19l-11 -20l-11 -19q0 -2 -3 -6h102v-52h-193q3 7 9 19l53 102q72 139 72 185q0 45 -34 45q-31 0 -31 -57q0 -17 1 -29h-62q-1 9 -1 20q0 58 17 85q22 34 77 34q96 0 96 -100zM508 667l-331 -667h-55l331 667h55zM170 267
h-61v348h-41v52h102v-400z" />
    <glyph glyph-name="threequarters" unicode="&#xbe;" horiz-adv-x="631" 
d="M603 108h-26v-108h-59v108h-116v49l117 243h58v-245h26v-47zM508 667l-330 -667h-55l331 667h54zM222 381q0 -119 -100 -119q-92 0 -92 97q0 7 1 13h60q-2 -6 -2 -16q-2 -41 32 -41q37 0 37 70q0 65 -47 65l-18 -2v53h11q32 0 42.5 13.5t10.5 46.5q0 58 -29 58
q-30 0 -30 -48q0 -10 1 -16h-61v13q0 104 89 104q90 0 90 -105q0 -75 -40 -94q45 -18 45 -92zM518 155v145l-63 -145h63z" />
    <glyph glyph-name="questiondown" unicode="&#xbf;" horiz-adv-x="329" 
d="M225 437q0 -22 -15.5 -38t-37.5 -16t-38 16t-16 38t16 37.5t38 15.5t37.5 -15.5t15.5 -37.5zM290 -17q-1 -74 -12 -109q-20 -64 -107 -64q-83 0 -112 61q-19 40 -19 136q0 83 10 115q19 60 82 65v141h79v-201q-7 1 -19 1q-47 0 -61 -35q-8 -20 -8 -77t4 -79
q10 -54 44 -54q30 0 37 39q2 11 2 61h80z" />
    <glyph glyph-name="Agrave" unicode="&#xc0;" horiz-adv-x="360" 
d="M189 761l-9 -39l-94 97l23 72zM359 0h-89l-25 130h-132l-26 -130h-86l145 667h70zM232 199l-20 107q-14 73 -32 231q-10 -109 -38 -252l-17 -86h107z" />
    <glyph glyph-name="Aacute" unicode="&#xc1;" horiz-adv-x="360" 
d="M359 0h-89l-25 130h-132l-26 -130h-86l145 667h70zM232 199l-20 107q-14 73 -32 231q-10 -109 -38 -252l-17 -86h107zM275 819l-95 -97l-9 39l80 130z" />
    <glyph glyph-name="Acircumflex" unicode="&#xc2;" horiz-adv-x="360" 
d="M359 0h-89l-25 130h-132l-26 -130h-86l145 667h70zM232 199l-20 107q-14 73 -32 231q-10 -109 -38 -252l-17 -86h107zM275 716l-36 -21l-59 63l-53 -63l-40 21l95 113z" />
    <glyph glyph-name="Atilde" unicode="&#xc3;" horiz-adv-x="360" 
d="M359 0h-89l-25 130h-132l-26 -130h-86l145 667h70zM232 199l-20 107q-14 73 -32 231q-10 -109 -38 -252l-17 -86h107zM290 787q-39 -65 -95 -65q-17 0 -41 20q-4 1 -15 6q-13 0 -29 -19l-42 -4q44 66 96 64q19 -1 38 -17q6 -7 20 -9q10 -2 28 19z" />
    <glyph glyph-name="Adieresis" unicode="&#xc4;" horiz-adv-x="360" 
d="M312 784q0 -21 -14.5 -35.5t-35.5 -14.5t-35 14.5t-14 35.5q0 20 14.5 34.5t34.5 14.5q21 0 35.5 -14t14.5 -35zM147 784q0 -21 -14.5 -35.5t-35.5 -14.5t-35 14.5t-14 35.5q0 20 14.5 34.5t34.5 14.5q21 0 35.5 -14t14.5 -35zM359 0h-89l-25 130h-132l-26 -130h-86
l145 667h70zM232 199l-20 107q-20 105 -32 231q-13 -127 -38 -252l-17 -86h107z" />
    <glyph glyph-name="Aring" unicode="&#xc5;" horiz-adv-x="360" 
d="M253 799q0 -30 -21.5 -51.5t-51.5 -21.5t-51.5 21.5t-21.5 51.5t21.5 51.5t51.5 21.5q31 0 52 -21t21 -52zM359 0h-89l-25 130h-132l-26 -130h-86l145 667h70zM208 799q0 28 -28 28t-28 -28t28 -28t28 28zM232 199l-20 107q-20 105 -32 231q-13 -127 -38 -252l-17 -86
h107z" />
    <glyph glyph-name="AE" unicode="&#xc6;" horiz-adv-x="511" 
d="M509 0h-231l-27 131h-138l-25 -131h-87l141 667h222l16 -76h-145l46 -212h132l17 -76h-131l51 -227h142zM239 198l-32 153q-10 49 -17 102l-10 87q-6 -84 -37 -251l-17 -91h113z" />
    <glyph glyph-name="Ccedilla" unicode="&#xc7;" horiz-adv-x="337" 
d="M313 10q-32 -19 -71 -19q-204 0 -204 331q0 354 200 354q39 0 75 -20v-81q-35 17 -57 17q-79 0 -107 -101q-16 -57 -16 -163q0 -250 127 -250q25 0 53 14v-82zM256 -71l-73 -118l-43 22l54 126z" />
    <glyph glyph-name="Egrave" unicode="&#xc8;" horiz-adv-x="321" 
d="M290 0h-239v667h239v-76h-149v-212h132v-76h-132v-227h149v-76zM178 761l-9 -39l-94 97l23 72z" />
    <glyph glyph-name="Eacute" unicode="&#xc9;" horiz-adv-x="321" 
d="M290 0h-239v667h239v-76h-149v-212h132v-76h-132v-227h149v-76zM264 819l-95 -97l-9 39l81 130z" />
    <glyph glyph-name="Ecircumflex" unicode="&#xca;" horiz-adv-x="321" 
d="M290 0h-239v667h239v-76h-149v-212h132v-76h-132v-227h149v-76zM264 725l-36 -21l-59 62l-53 -62l-39 21l94 113z" />
    <glyph glyph-name="Edieresis" unicode="&#xcb;" horiz-adv-x="321" 
d="M303 784q0 -21 -14.5 -35.5t-35.5 -14.5t-35 14.5t-14 35.5q0 20 14.5 34.5t34.5 14.5q21 0 35.5 -14t14.5 -35zM138 784q0 -21 -14.5 -35.5t-35.5 -14.5t-35 14.5t-14 35.5q0 20 14.5 34.5t34.5 14.5q21 0 35.5 -14t14.5 -35zM291 0h-239v667h239v-76h-149v-212h132v-76
h-132v-227h149v-76z" />
    <glyph glyph-name="Igrave" unicode="&#xcc;" horiz-adv-x="193" 
d="M141 0h-90v667h90v-667zM105 760l-9 -39l-94 97l23 72z" />
    <glyph glyph-name="Iacute" unicode="&#xcd;" horiz-adv-x="193" 
d="M141 0h-90v667h90v-667zM191 819l-95 -97l-9 39l81 130z" />
    <glyph glyph-name="Icircumflex" unicode="&#xce;" horiz-adv-x="193" 
d="M207 773l-37 -46l-74 62l-74 -62l-36 41l110 97zM141 0h-90v667h90v-667z" />
    <glyph glyph-name="Idieresis" unicode="&#xcf;" horiz-adv-x="193" 
d="M212 784q0 -21 -14.5 -35.5t-35.5 -14.5t-35 14.5t-14 35.5q0 20 14.5 34.5t34.5 14.5q21 0 35.5 -14t14.5 -35zM81 784q0 -21 -14.5 -35.5t-35.5 -14.5t-35 14.5t-14 35.5q0 20 14.5 34.5t34.5 14.5q21 0 35.5 -14t14.5 -35zM142 0h-90v667h90v-667z" />
    <glyph glyph-name="Eth" unicode="&#xd0;" horiz-adv-x="411" 
d="M373 327q0 -204 -64 -274q-49 -53 -185 -53h-73v330h-50v69h50v268h111q132 0 180 -111q31 -73 31 -229zM279 321q0 126 -12 171q-26 99 -116 99h-10v-192h87v-69h-87v-252q95 0 123 80q15 43 15 163z" />
    <glyph glyph-name="Ntilde" unicode="&#xd1;" horiz-adv-x="413" 
d="M318 818q0 -88 -66 -88q-15 0 -50 17q-27 13 -39 13q-17 0 -18 -24h-51q3 89 63 89q14 0 55 -18q29 -13 39 -13q15 0 15 24h52zM362 0h-84l-101 300q-9 26 -26 86q-5 17 -22 93q-2 7 -8 34q3 -17 5 -55q1 -30 6 -100q1 -16 3 -67l5 -291h-89v667h84l90 -266
q35 -104 68 -241q-9 65 -14 110q-7 67 -7 148v249h90v-667z" />
    <glyph glyph-name="Ograve" unicode="&#xd2;" horiz-adv-x="423" 
d="M385 317q0 -143 -21 -208q-38 -118 -148 -118q-121 0 -159 129q-19 65 -19 229q0 142 22 210q38 117 149 117q119 0 157 -131q19 -66 19 -228zM291 308q2 136 -2 164q-16 123 -76 123q-51 0 -68 -61q-12 -42 -13 -212q-1 -110 5 -146q16 -101 75 -102q58 -1 73 95
q5 29 6 139zM217 770l-8 -39l-95 97l23 72z" />
    <glyph glyph-name="Oacute" unicode="&#xd3;" horiz-adv-x="423" 
d="M385 317q0 -143 -21 -208q-38 -118 -148 -118q-121 0 -159 129q-19 65 -19 229q0 142 22 210q38 117 149 117q119 0 157 -131q19 -66 19 -228zM291 308q2 136 -2 164q-16 123 -76 123q-51 0 -68 -61q-12 -42 -13 -212q-1 -110 5 -146q16 -101 75 -102q58 -1 73 95
q5 29 6 139zM303 828l-94 -97l-9 39l80 130z" />
    <glyph glyph-name="Ocircumflex" unicode="&#xd4;" horiz-adv-x="423" 
d="M385 317q0 -143 -21 -208q-38 -118 -148 -118q-121 0 -159 129q-19 65 -19 229q0 142 22 210q38 117 149 117q119 0 157 -131q19 -66 19 -228zM291 308q2 136 -2 164q-16 123 -76 123q-51 0 -68 -61q-12 -42 -13 -212q-1 -110 5 -146q16 -101 75 -102q58 -1 73 95
q5 29 6 139zM303 716l-36 -21l-58 63l-54 -63l-39 21l94 113z" />
    <glyph glyph-name="Otilde" unicode="&#xd5;" horiz-adv-x="423" 
d="M385 317q0 -143 -21 -208q-38 -118 -148 -118q-121 0 -159 129q-19 65 -19 229q0 142 22 210q38 117 149 117q119 0 157 -131q19 -66 19 -228zM291 308q2 136 -2 164q-16 123 -76 123q-51 0 -68 -61q-12 -42 -13 -212q-1 -110 5 -146q16 -101 75 -102q58 -1 73 95
q5 29 6 139zM318 796q-18 -30 -40 -46q-21 -19 -54 -19q-17 0 -41 19q-5 2 -15 7q-14 0 -30 -19l-42 -4q45 66 97 64q19 -1 38 -17q6 -7 19 -9q10 -2 28 19z" />
    <glyph glyph-name="Odieresis" unicode="&#xd6;" horiz-adv-x="423" 
d="M343 784q0 -21 -14.5 -35.5t-35.5 -14.5t-35 14.5t-14 35.5q0 20 14.5 34.5t34.5 14.5q21 0 35.5 -14t14.5 -35zM178 784q0 -21 -14.5 -35.5t-35.5 -14.5t-35 14.5t-14 35.5q0 20 14.5 34.5t34.5 14.5q21 0 35.5 -14t14.5 -35zM385 317q0 -140 -22 -208
q-38 -118 -147 -118q-120 0 -158 130q-20 68 -20 228q0 142 22 210q38 117 149 117q120 0 157 -131q19 -67 19 -228zM291 308q0 146 -2 164q-14 123 -76 123q-51 0 -68 -61q-13 -47 -13 -212q0 -113 5 -145q16 -103 75 -103q57 0 73 95q6 36 6 139z" />
    <glyph glyph-name="Oslash" unicode="&#xd8;" horiz-adv-x="423" 
d="M411 656l-50 -99q23 -91 23 -229q0 -149 -19 -214q-36 -123 -148 -123q-81 0 -125 56l-35 -71l-50 27l54 109q-9 30 -13 56q-11 79 -11 188q0 141 22 207q38 113 149 113q78 0 121 -54l31 62zM272 541q-12 54 -60 54q-63 0 -78 -103q-3 -21 -3 -149q0 -63 4 -112z
M290 301q0 11 -3 134l-139 -309q18 -52 65 -52q56 0 71 92q6 37 6 135z" />
    <glyph glyph-name="Ugrave" unicode="&#xd9;" horiz-adv-x="409" 
d="M358 183q0 -96 -27 -138q-34 -53 -126 -53q-106 0 -138 73q-16 37 -16 131v471h88v-471q0 -63 6 -80q13 -37 61 -39q42 -2 56 34q8 20 8 72v484h88v-484zM215 743l-9 -39l-95 97l24 72z" />
    <glyph glyph-name="Uacute" unicode="&#xda;" horiz-adv-x="409" 
d="M358 183q0 -96 -27 -138q-34 -53 -126 -53q-106 0 -138 73q-16 37 -16 131v471h88v-471q0 -63 6 -80q13 -37 61 -39q42 -2 56 34q8 20 8 72v484h88v-484zM300 801l-94 -97l-9 39l80 130z" />
    <glyph glyph-name="Ucircumflex" unicode="&#xdb;" horiz-adv-x="409" 
d="M316 773l-37 -46l-74 62l-74 -62l-36 41l110 97zM358 183q0 -95 -28 -138q-35 -53 -125 -53q-105 0 -138 73q-16 36 -16 131v471h88v-471q0 -62 6 -80q13 -39 61 -39q44 0 57 33q7 18 7 73v484h88v-484z" />
    <glyph glyph-name="Udieresis" unicode="&#xdc;" horiz-adv-x="409" 
d="M336 784q0 -21 -14.5 -35.5t-35.5 -14.5t-35 14.5t-14 35.5q0 20 14.5 34.5t34.5 14.5q21 0 35.5 -14t14.5 -35zM171 784q0 -21 -14.5 -35.5t-35.5 -14.5t-35 14.5t-14 35.5q0 20 14.5 34.5t34.5 14.5q21 0 35.5 -14t14.5 -35zM358 183q0 -95 -28 -138q-35 -53 -125 -53
q-105 0 -138 73q-16 36 -16 131v471h88v-471q0 -62 6 -80q13 -39 61 -39q44 0 57 33q7 18 7 73v484h88v-484z" />
    <glyph glyph-name="Yacute" unicode="&#xdd;" 
d="M343 667l-116 -380v-287h-90v287l-139 380h95l44 -145q33 -108 43 -163q11 72 32 157l37 151h94zM266 791l-95 -97l-9 40l80 130z" />
    <glyph glyph-name="Thorn" unicode="&#xde;" horiz-adv-x="351" 
d="M332 394q0 -147 -93 -180q-34 -12 -98 -12v-202h-90v667h90v-94h28q88 0 127 -46q36 -43 36 -133zM239 382q0 115 -83 115h-15v-218h8q90 0 90 103z" />
    <glyph glyph-name="germandbls" unicode="&#xdf;" horiz-adv-x="365" 
d="M335 246q0 -124 -13 -165q-26 -82 -121 -82q-20 0 -32 1v76h11q47 0 60 61q4 19 4 97q0 130 -21 159q-17 24 -63 25v75q5 -1 11 -1q39 0 54 28q10 20 10 63q0 87 -53 87q-35 0 -46 -33q-6 -18 -6 -62v-575h-83v593q0 81 27 117q31 41 110 41q136 0 136 -155
q0 -115 -62 -140q58 -18 72 -87q5 -24 5 -123z" />
    <glyph glyph-name="agrave" unicode="&#xe0;" horiz-adv-x="349" 
d="M302 0h-83v58q-17 -34 -31 -47q-20 -18 -52 -18q-106 -1 -106 236q0 225 108 225q49 0 81 -57v50h83v-447zM222 223q1 156 -53 156q-39 0 -50 -63q-4 -23 -4 -93q0 -69 4 -92q11 -62 50 -63q52 -2 53 155zM174 555l-8 -35l-86 88l22 65z" />
    <glyph glyph-name="aacute" unicode="&#xe1;" horiz-adv-x="349" 
d="M302 0h-83v58q-17 -34 -31 -47q-20 -18 -52 -18q-106 -1 -106 236q0 225 108 225q49 0 81 -57v50h83v-447zM222 223q1 156 -53 156q-39 0 -50 -63q-4 -23 -4 -93q0 -69 4 -92q11 -62 50 -63q52 -2 53 155zM251 586l-85 -87l-8 35l72 118z" />
    <glyph glyph-name="acircumflex" unicode="&#xe2;" horiz-adv-x="349" 
d="M302 0h-83v58q-17 -34 -31 -47q-20 -18 -52 -18q-106 -1 -106 236q0 225 108 225q49 0 81 -57v50h83v-447zM222 223q1 156 -53 156q-39 0 -50 -63q-4 -23 -4 -93q0 -69 4 -92q11 -62 50 -63q52 -2 53 155zM250 506l-33 -18l-52 56l-48 -56l-35 18l85 102z" />
    <glyph glyph-name="atilde" unicode="&#xe3;" horiz-adv-x="349" 
d="M302 0h-83v58q-17 -34 -31 -47q-20 -18 -52 -18q-106 -1 -106 236q0 225 108 225q49 0 81 -57v50h83v-447zM222 223q1 156 -53 156q-39 0 -50 -63q-4 -23 -4 -93q0 -69 4 -92q11 -62 50 -63q52 -2 53 155zM265 579q-38 -59 -85 -59q-14 0 -37 18q-4 3 -14 7
q-12 0 -27 -17l-37 -5q41 60 87 58q17 -1 34 -15q4 -6 18 -8q9 -2 25 17z" />
    <glyph glyph-name="adieresis" unicode="&#xe4;" horiz-adv-x="349" 
d="M299 567q0 -21 -14.5 -35.5t-35.5 -14.5t-35.5 14.5t-14.5 35.5t14.5 35.5t35.5 14.5t35.5 -14.5t14.5 -35.5zM148 567q0 -21 -14.5 -35.5t-35.5 -14.5t-35.5 14.5t-14.5 35.5t14.5 35.5t35.5 14.5t35.5 -14.5t14.5 -35.5zM302 0h-83v58q-31 -65 -83 -65q-106 0 -106 236
q0 225 108 225q50 0 81 -57v50h83v-447zM222 223q0 156 -53 156q-38 0 -49 -64q-5 -29 -5 -92q0 -64 5 -91q12 -64 49 -64q53 0 53 155z" />
    <glyph glyph-name="aring" unicode="&#xe5;" horiz-adv-x="349" 
d="M248 578q0 -30 -21 -51t-51 -21t-51 21t-21 51t21 50.5t51 20.5t51 -20.5t21 -50.5zM302 0h-83v58q-31 -65 -83 -65q-106 0 -106 236q0 225 108 225q50 0 81 -57v50h83v-447zM206 579q0 29 -30 29t-30 -29q0 -30 30 -30t30 30zM222 223q0 156 -53 156q-38 0 -49 -64
q-5 -29 -5 -92q0 -64 5 -91q12 -64 49 -64q53 0 53 155z" />
    <glyph glyph-name="ae" unicode="&#xe6;" horiz-adv-x="505" 
d="M475 153q-9 -160 -127 -160q-79 0 -108 70q-32 -70 -98 -70q-112 0 -112 140q0 155 109 155q46 0 71 -29l-2 38q-2 40 -17 58.5t-54 18.5q-43 0 -85 -26v84q49 22 91 22q74 0 105 -57q34 57 94 57q133 0 133 -216v-32h-184q1 -66 5 -87q11 -57 51 -57q49 0 49 76v15h79z
M392 266v20q0 100 -50 100t-50 -100v-20h100zM216 143q0 80 -53 80q-50 0 -50 -77q0 -86 51 -86q52 0 52 83z" />
    <glyph glyph-name="ccedilla" unicode="&#xe7;" horiz-adv-x="253" 
d="M229 11q-32 -18 -67 -18q-132 0 -132 227q0 234 133 234q33 0 66 -15v-85q-18 21 -41 21q-68 0 -68 -148q0 -156 67 -156q18 0 42 17v-77zM197 -73l-75 -117l-39 19l56 126z" />
    <glyph glyph-name="egrave" unicode="&#xe8;" horiz-adv-x="326" 
d="M299 207h-188q3 -142 57 -143q49 -1 51 87h77q-10 -157 -129 -158q-137 -1 -137 228q0 231 133 232q136 1 136 -246zM215 266q-2 48 -8 71q-12 45 -44 46q-31 1 -43 -46q-3 -11 -9 -71h104zM174 555l-8 -35l-86 88l22 65z" />
    <glyph glyph-name="eacute" unicode="&#xe9;" horiz-adv-x="326" 
d="M299 207h-188q3 -142 57 -143q49 -1 51 87h77q-10 -157 -129 -158q-137 -1 -137 228q0 231 133 232q136 1 136 -246zM215 266q-2 48 -8 71q-12 45 -44 46q-31 1 -43 -46q-3 -11 -9 -71h104zM251 608l-85 -88l-8 35l72 118z" />
    <glyph glyph-name="ecircumflex" unicode="&#xea;" horiz-adv-x="326" 
d="M299 207h-188q3 -142 57 -143q49 -1 51 87h77q-10 -157 -129 -158q-137 -1 -137 228q0 231 133 232q136 1 136 -246zM215 266q-2 48 -8 71q-12 45 -44 46q-31 1 -43 -46q-3 -11 -9 -71h104zM250 506l-33 -18l-52 56l-48 -56l-35 18l85 102z" />
    <glyph glyph-name="edieresis" unicode="&#xeb;" horiz-adv-x="326" 
d="M290 567q0 -21 -14.5 -35.5t-35.5 -14.5t-35.5 14.5t-14.5 35.5t14.5 35.5t35.5 14.5t35.5 -14.5t14.5 -35.5zM139 567q0 -21 -14.5 -35.5t-35.5 -14.5t-35.5 14.5t-14.5 35.5t14.5 35.5t35.5 14.5t35.5 -14.5t14.5 -35.5zM299 207h-188q3 -143 57 -143q50 0 51 87h77
q-9 -158 -129 -158q-137 0 -137 228q0 232 133 232q137 0 136 -246zM215 266q-3 52 -8 72q-11 45 -44 45q-32 0 -44 -46q-4 -15 -8 -71h104z" />
    <glyph glyph-name="igrave" unicode="&#xec;" horiz-adv-x="176" 
d="M130 0h-83v447h83v-447zM96 545l-8 -34l-85 87l21 65z" />
    <glyph glyph-name="iacute" unicode="&#xed;" horiz-adv-x="176" 
d="M130 0h-83v447h83v-447zM174 598l-86 -87l-8 34l72 118z" />
    <glyph glyph-name="icircumflex" unicode="&#xee;" horiz-adv-x="176" 
d="M199 548l-42 -34l-69 73l-64 -73l-46 34l111 123zM129 0h-83v447h83v-447z" />
    <glyph glyph-name="idieresis" unicode="&#xef;" horiz-adv-x="176" 
d="M205 567q0 -21 -14.5 -35.5t-35.5 -14.5t-35.5 14.5t-14.5 35.5t14.5 35.5t35.5 14.5t35.5 -14.5t14.5 -35.5zM71 567q0 -21 -14.5 -35.5t-35.5 -14.5t-35.5 14.5t-14.5 35.5t14.5 35.5t35.5 14.5t35.5 -14.5t14.5 -35.5zM130 0h-83v447h83v-447z" />
    <glyph glyph-name="eth" unicode="&#xf0;" 
d="M311 231q0 -238 -141 -238q-140 0 -140 228q0 233 140 233q10 0 29 -3q-16 68 -58 130l-77 -53l-31 46l75 51q-44 40 -71 59l46 52q53 -37 82 -69l75 54l33 -50l-71 -49q109 -136 109 -391zM226 221q0 68 -4 92q-11 66 -49 66q-39 0 -50 -65q-4 -23 -4 -93q0 -62 5 -90
q11 -63 49 -63q37 0 48 63q5 28 5 90z" />
    <glyph glyph-name="ntilde" unicode="&#xf1;" horiz-adv-x="358" 
d="M291 608q-3 -43 -13 -61q-15 -27 -53 -27q-16 0 -62 22q-11 5 -23 6q-17 1 -20 -24h-52q7 87 67 87q25 0 58 -19q16 -9 29 -10q14 -1 19 26h50zM312 0h-83v299q0 83 -48 83q-51 0 -51 -93v-289h-83v447h83v-51q36 58 91 58q62 0 82 -52q9 -24 9 -84v-318z" />
    <glyph glyph-name="ograve" unicode="&#xf2;" 
d="M311 221q0 -228 -140 -228q-141 0 -141 228q0 232 141 233q140 1 140 -233zM226 222q0 69 -4 92q-11 64 -49 65t-49 -64q-5 -29 -5 -93q0 -61 5 -89q11 -62 49 -63q53 -1 53 152zM174 555l-8 -35l-86 88l22 65z" />
    <glyph glyph-name="oacute" unicode="&#xf3;" 
d="M311 221q0 -228 -140 -228q-141 0 -141 228q0 232 141 233q140 1 140 -233zM226 222q0 69 -4 92q-11 64 -49 65t-49 -64q-5 -29 -5 -93q0 -61 5 -89q11 -62 49 -63q53 -1 53 152zM251 608l-85 -88l-8 35l72 118z" />
    <glyph glyph-name="ocircumflex" unicode="&#xf4;" 
d="M311 221q0 -228 -140 -228q-141 0 -141 228q0 232 141 233q140 1 140 -233zM226 222q0 69 -4 92q-11 64 -49 65t-49 -64q-5 -29 -5 -93q0 -61 5 -89q11 -62 49 -63q53 -1 53 152zM250 506l-33 -18l-52 56l-48 -56l-35 18l85 102z" />
    <glyph glyph-name="otilde" unicode="&#xf5;" 
d="M311 221q0 -228 -140 -228q-141 0 -141 228q0 232 141 233q140 1 140 -233zM226 222q0 69 -4 92q-11 64 -49 65t-49 -64q-5 -29 -5 -93q0 -61 5 -89q11 -62 49 -63q53 -1 53 152zM265 579q-38 -59 -85 -59q-14 0 -37 18q-4 3 -14 7q-12 0 -27 -17l-37 -5q41 60 87 58
q17 -1 34 -15q4 -6 18 -8q9 -2 25 17z" />
    <glyph glyph-name="odieresis" unicode="&#xf6;" 
d="M295 567q0 -21 -14.5 -35.5t-35.5 -14.5t-35.5 14.5t-14.5 35.5t14.5 35.5t35.5 14.5t35.5 -14.5t14.5 -35.5zM144 567q0 -21 -14.5 -35.5t-35.5 -14.5t-35.5 14.5t-14.5 35.5t14.5 35.5t35.5 14.5t35.5 -14.5t14.5 -35.5zM311 221q0 -228 -140 -228q-141 0 -141 228
q0 233 141 233q140 0 140 -233zM226 222q0 63 -5 92q-11 65 -48 65q-39 0 -50 -65q-4 -24 -4 -92q0 -62 5 -90q11 -62 49 -62q37 0 48 63q5 28 5 89z" />
    <glyph glyph-name="divide" unicode="&#xf7;" horiz-adv-x="380" 
d="M241 461q0 -22 -14.5 -37t-36.5 -15t-37 15t-15 37t15 36.5t37 14.5q21 0 36 -15t15 -36zM346 304h-312v74h312v-74zM241 220q0 -22 -14.5 -37t-36.5 -15t-37 15t-15 37t15 36.5t37 14.5q21 0 36 -15t15 -36z" />
    <glyph glyph-name="oslash" unicode="&#xf8;" 
d="M333 434l-41 -72q19 -50 19 -149q0 -220 -141 -220q-58 0 -91 36l-30 -44l-42 30l41 65q-18 72 -18 148q0 226 139 226q55 0 93 -37l28 45zM211 347q-9 32 -42 32q-51 0 -51 -138v-7q1 -8 1 -16v-35zM225 213q0 7 -2 53l-92 -168q11 -34 42 -34q38 0 48 61q4 24 4 88z
" />
    <glyph glyph-name="ugrave" unicode="&#xf9;" horiz-adv-x="359" 
d="M313 180q0 -97 -16 -128q-30 -58 -118 -59q-76 -1 -107 43q-25 36 -25 116v295h83v-267q0 -57 5 -76q8 -31 45 -32q42 -1 48 39q2 13 2 69v267h83v-267zM188 535l-8 -35l-86 87l22 65z" />
    <glyph glyph-name="uacute" unicode="&#xfa;" horiz-adv-x="359" 
d="M313 180q0 -97 -16 -128q-30 -58 -118 -59q-76 -1 -107 43q-25 36 -25 116v295h83v-267q0 -57 5 -76q8 -31 45 -32q42 -1 48 39q2 13 2 69v267h83v-267zM266 587l-86 -87l-8 35l72 117z" />
    <glyph glyph-name="ucircumflex" unicode="&#xfb;" horiz-adv-x="359" 
d="M291 548l-42 -34l-69 73l-64 -73l-46 34l111 123zM313 180q0 -96 -16 -128q-30 -59 -118 -59q-75 0 -106 44q-26 37 -26 115v295h83v-267q0 -56 5 -76q8 -32 45 -32q42 0 48 39q2 13 2 69v267h83v-267z" />
    <glyph glyph-name="udieresis" unicode="&#xfc;" horiz-adv-x="359" 
d="M305 567q0 -21 -14.5 -35.5t-35.5 -14.5t-35.5 14.5t-14.5 35.5t14.5 35.5t35.5 14.5t35.5 -14.5t14.5 -35.5zM154 567q0 -21 -14.5 -35.5t-35.5 -14.5t-35.5 14.5t-14.5 35.5t14.5 35.5t35.5 14.5t35.5 -14.5t14.5 -35.5zM313 180q0 -96 -16 -128q-30 -59 -118 -59
q-75 0 -106 44q-26 37 -26 115v295h83v-267q0 -56 5 -76q8 -32 45 -32q42 0 48 39q2 13 2 69v267h83v-267z" />
    <glyph glyph-name="yacute" unicode="&#xfd;" horiz-adv-x="326" 
d="M322 447l-182 -630h-87l69 219l-119 411h93l66 -312l77 312h83zM251 573l-85 -87l-8 34l72 118z" />
    <glyph glyph-name="thorn" unicode="&#xfe;" horiz-adv-x="349" 
d="M319 218q0 -225 -108 -225q-51 0 -81 57v-233h-83v916h83v-344q29 65 83 65q106 0 106 -236zM234 224q0 64 -5 91q-12 64 -49 64q-53 0 -53 -155q0 -156 53 -156q38 0 49 64q5 29 5 92z" />
    <glyph glyph-name="ydieresis" unicode="&#xff;" horiz-adv-x="326" 
d="M288 567q0 -21 -14.5 -35.5t-35.5 -14.5t-35.5 14.5t-14.5 35.5t14.5 35.5t35.5 14.5t35.5 -14.5t14.5 -35.5zM137 567q0 -21 -14.5 -35.5t-35.5 -14.5t-35.5 14.5t-14.5 35.5t14.5 35.5t35.5 14.5t35.5 -14.5t14.5 -35.5zM322 447l-182 -630h-87l69 219l-119 411h93
l66 -312l77 312h83z" />
    <glyph glyph-name="glyph271" unicode="&#x102;" horiz-adv-x="360" 
d="M359 0h-89l-25 130h-132l-26 -130h-86l145 667h70zM232 199l-20 107q-14 73 -32 231q-10 -109 -38 -252l-17 -86h107zM278 801q-6 -97 -98 -97q-88 0 -97 97l52 -4q0 -52 45 -53q41 0 46 53z" />
    <glyph glyph-name="glyph272" unicode="&#x103;" horiz-adv-x="349" 
d="M302 0h-83v58q-17 -34 -31 -47q-20 -18 -52 -18q-106 -1 -106 236q0 225 108 225q49 0 81 -57v50h83v-447zM222 223q1 156 -53 156q-39 0 -50 -63q-4 -23 -4 -93q0 -69 4 -92q11 -62 50 -63q52 -2 53 155zM254 589q-2 -88 -88 -88q-78 0 -88 88l48 -4q0 -47 40 -48
q37 0 42 48z" />
    <glyph glyph-name="Cacute" unicode="&#x106;" horiz-adv-x="711" 
d="M313 10q-32 -19 -71 -19q-204 0 -204 331q0 354 200 354q39 0 75 -20v-81q-35 17 -57 17q-79 0 -107 -101q-16 -57 -16 -163q0 -250 127 -250q25 0 53 14v-82zM540 888l-88 -119l-44 25l73 132z" />
    <glyph glyph-name="cacute" unicode="&#x107;" horiz-adv-x="441" 
d="M229 11q-32 -18 -67 -18q-132 0 -132 227q0 234 133 234q33 0 66 -15v-85q-18 21 -41 21q-68 0 -68 -148q0 -156 67 -156q18 0 42 17v-77zM341 633l-88 -119l-44 25l73 132z" />
    <glyph glyph-name="Ccaron" unicode="&#x10c;" horiz-adv-x="711" 
d="M313 10q-32 -19 -71 -19q-204 0 -204 331q0 354 200 354q39 0 75 -20v-81q-35 17 -57 17q-79 0 -107 -101q-16 -57 -16 -163q0 -250 127 -250q25 0 53 14v-82zM538 892l-110 -123l-111 123l46 34l64 -73l69 73z" />
    <glyph glyph-name="ccaron" unicode="&#x10d;" horiz-adv-x="441" 
d="M229 11q-32 -18 -67 -18q-132 0 -132 227q0 234 133 234q33 0 66 -15v-85q-18 21 -41 21q-68 0 -68 -148q0 -156 67 -156q18 0 42 17v-77zM339 637l-110 -123l-111 123l46 34l64 -73l69 73z" />
    <glyph glyph-name="Dslash" unicode="&#x110;" horiz-adv-x="411" 
d="M373 327q0 -204 -64 -274q-48 -53 -185 -53h-73v330h-50v69h50v268h111q105 0 151 -61q60 -79 60 -279zM279 321q1 124 -12 172q-27 98 -116 98h-10v-192h87v-69h-87v-252q93 0 122 81q15 42 16 162z" />
    <glyph glyph-name="dcroat" unicode="&#x111;" horiz-adv-x="349" 
d="M222 224q0 154 -53 155q-39 1 -50 -63q-4 -23 -4 -92t4 -92q11 -63 50 -64q53 -2 53 156zM302 578h29v-66h-29v-512h-83v57q-18 -34 -31 -46q-19 -18 -52 -18q-106 -1 -106 236q0 225 108 225q49 0 81 -58v116h-82v66h82v155h83v-155z" />
    <glyph glyph-name="Gbreve" unicode="&#x11e;" horiz-adv-x="767" 
d="M374 351q0 -86 -1 -109q-5 -116 -27 -167q-36 -83 -131 -83q-115 0 -155 122q-22 67 -22 217q0 154 20 221q37 124 155 124q66 0 104 -37q33 -32 52 -100l-84 -35q-18 93 -76 93q-59 0 -74 -112q-4 -30 -4 -153q0 -113 5 -149q15 -108 74 -108q54 0 71 63q8 30 8 106v31
h-78v76h163zM555 886q-3 -59 -28 -87t-82 -28q-100 0 -109 115h55q3 -62 54 -62q30 0 42 17q9 13 13 45h55z" />
    <glyph glyph-name="gbreve" unicode="&#x11f;" horiz-adv-x="492" 
d="M303 -14q0 -69 -11 -102q-24 -72 -127 -72q-61 0 -95 34t-34 95q0 3 1 12h80q0 -72 53 -72q34 0 44 29q6 17 6 58v87q-27 -62 -81 -62q-109 0 -109 225q0 97 13 145q25 91 94 91q51 0 83 -60v53h83v-461zM221 219q0 160 -54 160q-52 0 -52 -153q0 -69 5 -94
q13 -64 53 -64q35 0 44 63q4 28 4 88zM355 631q-3 -59 -28 -87t-82 -28q-100 0 -109 115h55q3 -62 54 -62q30 0 42 17q9 13 13 45h55z" />
    <glyph glyph-name="glyph273" unicode="&#x128;" horiz-adv-x="193" 
d="M141 0h-90v667h90v-667zM206 787q-39 -65 -95 -65q-17 0 -41 20q-4 1 -15 6q-13 0 -29 -19l-42 -4q45 66 96 64q20 -1 39 -17q5 -7 19 -9q10 -2 28 19z" />
    <glyph glyph-name="glyph274" unicode="&#x129;" horiz-adv-x="176" 
d="M130 0h-83v447h83v-447zM187 570q-37 -58 -85 -58q-14 0 -37 17q-4 2 -13 7q-13 0 -27 -17l-37 -5q41 60 86 58q18 -1 35 -15q4 -6 18 -8q9 -1 25 17z" />
    <glyph glyph-name="Idotaccent" unicode="&#x130;" horiz-adv-x="429" 
d="M141 0h-90v667h90v-667zM329 825q0 -22 -15 -37.5t-37 -15.5t-37.5 15.5t-15.5 37.5t15.5 37t37.5 15q21 0 36.5 -15.5t15.5 -36.5z" />
    <glyph glyph-name="dotlessi" unicode="&#x131;" horiz-adv-x="176" 
d="M130 0h-83v447h83v-447z" />
    <glyph glyph-name="Lslash" unicode="&#x141;" horiz-adv-x="293" 
d="M288 0h-237v237l-51 -41v86l51 41v344h90v-290l111 85v-86l-111 -85v-215h147v-76z" />
    <glyph glyph-name="lslash" unicode="&#x142;" horiz-adv-x="192" 
d="M192 392l-54 -46v-346h-83v300l-55 -44v76l55 44v357h83v-311l54 46v-76z" />
    <glyph glyph-name="OE" unicode="&#x152;" horiz-adv-x="564" 
d="M526 0h-232v52q-36 -61 -101 -61q-101 0 -136 129q-19 70 -19 208q0 147 16 213q33 135 135 135q38 0 60 -13t41 -47v51h231v-76h-147v-212h135v-76h-135v-227h152v-76zM289 334q0 128 -3 151q-14 109 -72 112q-59 3 -77 -110q-7 -44 -7 -153q0 -107 7 -152
q17 -109 77 -109q47 0 63 63q12 47 12 198z" />
    <glyph glyph-name="oe" unicode="&#x153;" horiz-adv-x="524" 
d="M494 207h-189q3 -61 9 -86q14 -57 51 -57q50 0 50 87h77q-7 -158 -131 -158q-62 0 -97 62q-30 -62 -96 -62q-138 0 -138 236q0 225 140 225q69 0 95 -60q29 60 94 60q85 0 116 -88q19 -54 19 -159zM409 264q-2 53 -7 73q-12 48 -45 48q-50 0 -50 -103v-18h102zM225 222
q0 157 -55 157t-55 -157q0 -154 55 -154t55 154z" />
    <glyph glyph-name="Scedilla" unicode="&#x15e;" horiz-adv-x="656" 
d="M305 171q0 -77 -39 -126q-42 -54 -117 -54q-55 0 -97 32v89q47 -35 87 -35q38 0 58 26t20 65q0 40 -23 76q-15 24 -53 61q-61 60 -79 88q-31 48 -31 112q0 75 37 121q40 50 114 50q49 0 91 -23v-88q-41 30 -72 30q-38 0 -60 -25t-22 -63q0 -40 31 -81q18 -24 67 -73
q44 -44 62 -77q26 -48 26 -105zM366 -73l-76 -117l-38 19l55 126z" />
    <glyph glyph-name="scedilla" unicode="&#x15f;" horiz-adv-x="383" 
d="M240 126q0 -60 -34.5 -96.5t-93.5 -36.5q-35 0 -72 21v80q37 -26 67 -26q57 0 57 57q0 28 -50 72q-61 54 -71 70q-18 29 -18 69q0 54 32.5 88t86.5 34q40 0 75 -20v-77q-29 22 -63 22q-23 0 -38 -14t-15 -36q0 -32 58 -76q43 -33 58 -55q21 -31 21 -76zM269 -73l-76 -117
l-38 19l55 126z" />
    <glyph glyph-name="Scaron" unicode="&#x160;" horiz-adv-x="330" 
d="M283 823l-110 -96l-111 91l37 47l74 -62l74 62zM305 171q0 -77 -39 -126q-42 -54 -117 -54q-55 0 -97 32v89q47 -35 87 -35q38 0 58 26t20 65q0 40 -23 76q-15 24 -53 61q-61 60 -79 88q-31 48 -31 112q0 75 37 121q40 50 114 50q49 0 91 -23v-88q-41 30 -72 30
q-38 0 -60 -25t-22 -63q0 -40 31 -81q18 -24 67 -73q44 -44 62 -77q26 -48 26 -105z" />
    <glyph glyph-name="scaron" unicode="&#x161;" horiz-adv-x="260" 
d="M241 637l-110 -123l-111 123l46 34l64 -73l69 73zM240 126q0 -60 -34.5 -96.5t-93.5 -36.5q-35 0 -72 21v80q37 -26 67 -26q57 0 57 57q0 28 -50 72q-61 54 -71 70q-18 29 -18 69q0 54 32.5 88t86.5 34q40 0 75 -20v-77q-29 22 -63 22q-23 0 -38 -14t-15 -36
q0 -32 58 -76q43 -33 58 -55q21 -31 21 -76z" />
    <glyph glyph-name="ch903" unicode="&#x168;" horiz-adv-x="409" 
d="M358 183q0 -96 -27 -138q-34 -53 -126 -53q-106 0 -138 73q-16 37 -16 131v471h88v-471q0 -63 6 -80q13 -37 61 -39q42 -2 56 34q8 20 8 72v484h88v-484zM313 778q-39 -65 -95 -65q-17 0 -41 20q-4 1 -15 6q-13 0 -29 -19l-42 -4q45 66 96 64q20 -1 38 -17q6 -7 20 -9
q10 -2 28 19z" />
    <glyph glyph-name="ch904" unicode="&#x169;" horiz-adv-x="359" 
d="M313 180q0 -97 -16 -128q-30 -58 -118 -59q-76 -1 -107 43q-25 36 -25 116v295h83v-267q0 -57 5 -76q8 -31 45 -32q42 -1 48 39q2 13 2 69v267h83v-267zM279 568q-37 -59 -85 -59q-14 0 -37 18q-4 2 -14 6q-12 0 -26 -17l-38 -4q41 59 87 58q15 0 35 -16q4 -5 17 -8
q10 -1 25 17z" />
    <glyph glyph-name="Ydieresis" unicode="&#x178;" 
d="M303 784q0 -21 -14.5 -35.5t-35.5 -14.5t-35 14.5t-14 35.5q0 20 14.5 34.5t34.5 14.5q21 0 35.5 -14t14.5 -35zM138 784q0 -21 -14.5 -35.5t-35.5 -14.5t-35 14.5t-14 35.5q0 20 14.5 34.5t34.5 14.5q21 0 35.5 -14t14.5 -35zM343 667l-116 -380v-287h-90v287l-139 380
h95l44 -145q3 -8 10 -31q24 -78 33 -132q13 79 32 157l37 151h94z" />
    <glyph glyph-name="Zcaron" unicode="&#x17d;" horiz-adv-x="334" 
d="M291 823l-110 -96l-111 91l37 47l74 -62l74 62zM328 667l-200 -588h189v-79h-306l202 591h-178v76h293z" />
    <glyph glyph-name="zcaron" unicode="&#x17e;" horiz-adv-x="298" 
d="M265 637l-110 -123l-111 123l46 34l64 -73l69 73zM285 447l-150 -372h142v-75h-264l155 374h-143v73h260z" />
    <glyph glyph-name="florin" unicode="&#x192;" horiz-adv-x="379" 
d="M378 729l-14 -84q-20 10 -36 10q-28 0 -39 -32q-4 -12 -12 -55l-22 -123h69l-7 -35h-68l-59 -333q-18 -102 -36 -139q-34 -70 -109 -70q-29 0 -58 11l13 76q22 -7 39 -7q34 0 51 49q5 14 16 77l59 336h-54l6 35h54l22 124q16 90 30 116q30 55 101 55q27 0 54 -11z" />
    <glyph glyph-name="glyph277" unicode="&#x1a0;" horiz-adv-x="423" 
d="M291 308q2 136 -2 164q-16 123 -76 123q-51 0 -68 -61q-12 -42 -13 -212q-1 -110 5 -146q16 -101 75 -102q58 -1 73 95q5 29 6 139zM333 684q0 10 -13 20q0 27 4 27q1 8 15 6q12 -1 17 -6q20 -19 24 -37q6 -26 -12 -42.5t-45 -20.5q62 -69 62 -314q0 -143 -21 -208
q-38 -118 -148 -118q-121 0 -159 129q-19 65 -19 229q0 142 22 210q38 117 149 117q49 0 82 -19l31 10q11 4 11 17z" />
    <glyph glyph-name="glyph278" unicode="&#x1a1;" 
d="M226 222q0 69 -4 92q-11 64 -49 65t-49 -64q-5 -29 -5 -93q0 -61 5 -89q11 -62 49 -63q53 -1 53 152zM225 443l40 4l5 -1l6 6q4 5 4 10q0 9 -12 18q0 24 4 24q1 6 12 5q12 -1 16 -5q18 -17 22 -33q6 -24 -10.5 -39t-41.5 -18l-3 -6q44 -57 44 -187q0 -228 -140 -228
q-141 0 -141 228q0 232 141 233q28 0 54 -11z" />
    <glyph glyph-name="glyph279" unicode="&#x1af;" horiz-adv-x="409" 
d="M358 631v-448q0 -96 -27 -138q-34 -53 -126 -53q-106 0 -138 73q-16 37 -16 131v471h88v-471q0 -63 6 -80q13 -37 61 -39q42 -2 56 34q8 20 8 72v484h88v-1q12 7 12 18q0 10 -13 20q0 27 4 27q1 8 14 6q12 -1 17 -6q20 -18 24 -37q6 -26 -12 -42.5t-46 -20.5z" />
    <glyph glyph-name="glyph280" unicode="&#x1b0;" horiz-adv-x="359" 
d="M318 446l6 6q4 5 4 10q0 9 -12 18q0 24 4 24q1 6 12 5q12 -1 16 -5q18 -17 22 -33q6 -24 -10.5 -39t-41.5 -18q-2 -8 -5 -6v-228q0 -97 -16 -128q-30 -58 -118 -59q-76 -1 -107 43q-25 36 -25 116v295h83v-267q0 -57 5 -76q8 -31 45 -32q42 -1 48 39q2 13 2 69v267h83z
" />
    <glyph glyph-name="circumflex" unicode="&#x2c6;" horiz-adv-x="500" 
d="M361 548l-42 -34l-69 73l-64 -73l-46 34l111 123z" />
    <glyph glyph-name="caron" unicode="&#x2c7;" horiz-adv-x="500" 
d="M361 637l-110 -123l-111 123l46 34l64 -73l69 73z" />
    <glyph glyph-name="breve" unicode="&#x2d8;" horiz-adv-x="500" 
d="M359 631q-3 -59 -28 -87t-82 -28q-100 0 -109 115h55q3 -62 54 -62q30 0 42 17q9 13 13 45h55z" />
    <glyph glyph-name="dotaccent" unicode="&#x2d9;" horiz-adv-x="500" 
d="M302 570q0 -22 -15 -37.5t-37 -15.5t-37.5 15.5t-15.5 37.5t15.5 37t37.5 15q21 0 36.5 -15.5t15.5 -36.5z" />
    <glyph glyph-name="ring" unicode="&#x2da;" horiz-adv-x="500" 
d="M322 578q0 -30 -21 -51t-51 -21t-51 21t-21 51t21 50.5t51 20.5t51 -20.5t21 -50.5zM280 579q0 29 -30 29t-30 -29q0 -30 30 -30t30 30z" />
    <glyph glyph-name="ogonek" unicode="&#x2db;" horiz-adv-x="500" 
d="M338 -146q-23 -9 -48 -9q-34 0 -58 18t-24 51q0 39 48 86h49q-44 -39 -44 -72q0 -31 34 -31q21 0 43 8v-51z" />
    <glyph glyph-name="tilde" unicode="&#x2dc;" horiz-adv-x="500" 
d="M361 608q-3 -43 -13 -61q-15 -27 -53 -27q-16 0 -62 22q-11 5 -23 6q-17 1 -20 -24h-52q7 87 67 87q25 0 58 -19q16 -9 29 -10q14 -1 19 26h50z" />
    <glyph glyph-name="hungarumlaut" unicode="&#x2dd;" horiz-adv-x="500" 
d="M402 638l-77 -124l-40 21l61 136zM289 638l-77 -124l-40 21l61 136z" />
    <glyph glyph-name="Delta" unicode="&#x394;" horiz-adv-x="667" 
d="M642 0h-617l261 667h93zM516 81l-183 480l-184 -480h367z" />
    <glyph glyph-name="Delta" unicode="&#x2206;" horiz-adv-x="667" 
d="M642 0h-617l261 667h93zM516 81l-183 480l-184 -480h367z" />
    <glyph glyph-name="Omega" unicode="&#x3a9;" horiz-adv-x="666" 
d="M638 0h-264v73q170 96 170 281q0 99 -55 170q-60 78 -156 78q-97 0 -157 -78q-54 -71 -54 -171q0 -185 170 -280v-73h-264v81h166q-166 100 -166 283q0 136 85 227.5t220 91.5t220 -91t85 -227q0 -185 -166 -284h166v-81z" />
    <glyph glyph-name="Omega" unicode="&#x2126;" horiz-adv-x="666" 
d="M638 0h-264v73q170 96 170 281q0 99 -55 170q-60 78 -156 78q-97 0 -157 -78q-54 -71 -54 -171q0 -185 170 -280v-73h-264v81h166q-166 100 -166 283q0 136 85 227.5t220 91.5t220 -91t85 -227q0 -185 -166 -284h166v-81z" />
    <glyph glyph-name="pi" unicode="&#x3c0;" horiz-adv-x="601" 
d="M571 401h-74v-401h-87v401h-218v-401h-87v401h-75v78h541v-78z" />
    <glyph glyph-name="glyph281" unicode="&#x1ea0;" horiz-adv-x="360" 
d="M359 0h-89l-25 130h-132l-26 -130h-86l145 667h70zM232 199l-20 107q-14 73 -32 231q-10 -109 -38 -252l-17 -86h107zM228 -65q1 -20 -13.5 -34t-34.5 -15t-33.5 14t-14.5 35q-1 19 14 32.5t34 14.5q20 1 33.5 -13t14.5 -34z" />
    <glyph glyph-name="glyph282" unicode="&#x1ea1;" horiz-adv-x="349" 
d="M302 0h-83v58q-17 -34 -31 -47q-20 -18 -52 -18q-106 -1 -106 236q0 225 108 225q49 0 81 -57v50h83v-447zM222 223q1 156 -53 156q-39 0 -50 -63q-4 -23 -4 -93q0 -69 4 -92q11 -62 50 -63q52 -2 53 155zM211 -90q1 -19 -12.5 -31.5t-32.5 -13.5q-15 -1 -33 12
q-12 14 -12 33q0 43 45 45q19 1 31.5 -12.5t13.5 -32.5z" />
    <glyph glyph-name="glyph283" unicode="&#x1ea2;" horiz-adv-x="360" 
d="M359 0h-89l-25 130h-132l-26 -130h-86l145 667h70zM232 199l-20 107q-14 73 -32 231q-10 -109 -38 -252l-17 -86h107zM242 832q0 -35 -11 -52q-7 -19 -32 -21v-24l-19 -22l-15 22v42q1 0 3.5 4.5t4.5 3.5q30 0 30 43q0 36 -3 45q-6 13 -17 13t-16 -14q-1 -6 -1 -31
l-17 -21l-18 21q0 37 5 48q8 28 46 28q60 0 60 -85z" />
    <glyph glyph-name="glyph284" unicode="&#x1ea3;" horiz-adv-x="349" 
d="M302 0h-83v58q-17 -34 -31 -47q-20 -18 -52 -18q-106 -1 -106 236q0 225 108 225q49 0 81 -57v50h83v-447zM222 223q1 156 -53 156q-39 0 -50 -63q-4 -23 -4 -93q0 -69 4 -92q11 -62 50 -63q52 -2 53 155zM222 619q0 -62 -38 -66v-21l-17 -20l-14 20v38q1 0 3.5 3.5
t3.5 3.5q28 0 28 38q0 31 -4 40q-4 13 -15 13q-9 0 -14 -13q-1 -5 -1 -28l-15 -19l-16 19q0 32 4 43q9 25 41 25q54 0 54 -76z" />
    <glyph glyph-name="glyph285" unicode="&#x1ea4;" horiz-adv-x="360" 
d="M359 0h-89l-25 130h-132l-26 -130h-86l145 667h70zM232 199l-20 107q-14 73 -32 231q-10 -109 -38 -252l-17 -86h107zM369 855l-94 -97l-9 39l80 130zM275 716l-36 -21l-59 63l-53 -63l-40 21l95 113z" />
    <glyph glyph-name="glyph286" unicode="&#x1ea5;" horiz-adv-x="349" 
d="M302 0h-83v58q-17 -34 -31 -47q-20 -18 -52 -18q-106 -1 -106 236q0 225 108 225q49 0 81 -57v50h83v-447zM222 223q1 156 -53 156q-39 0 -50 -63q-4 -23 -4 -93q0 -69 4 -92q11 -62 50 -63q52 -2 53 155zM335 631l-85 -87l-8 34l72 118zM250 506l-33 -18l-52 56l-48 -56
l-35 18l85 102z" />
    <glyph glyph-name="glyph287" unicode="&#x1ea6;" horiz-adv-x="360" 
d="M359 0h-89l-25 130h-132l-26 -130h-86l145 667h70zM232 199l-20 107q-14 73 -32 231q-10 -109 -38 -252l-17 -86h107zM95 797l-9 -39l-94 97l23 72zM275 716l-36 -21l-59 63l-53 -63l-40 21l95 113z" />
    <glyph glyph-name="glyph288" unicode="&#x1ea7;" horiz-adv-x="349" 
d="M302 0h-83v58q-17 -34 -31 -47q-20 -18 -52 -18q-106 -1 -106 236q0 225 108 225q49 0 81 -57v50h83v-447zM222 223q1 156 -53 156q-39 0 -50 -63q-4 -23 -4 -93q0 -69 4 -92q11 -62 50 -63q52 -2 53 155zM90 578l-8 -35l-86 87l22 65zM250 505l-32 -18l-52 56l-48 -56
l-35 18l85 102z" />
    <glyph glyph-name="glyph289" unicode="&#x1ea8;" horiz-adv-x="360" 
d="M359 0h-89l-25 130h-132l-26 -130h-86l145 667h70zM232 199l-20 107q-14 73 -32 231q-10 -109 -38 -252l-17 -86h107zM351 876q0 -35 -11 -52q-7 -18 -32 -20v-24l-18 -22l-15 22v42l3 5q3 4 5 3q30 0 30 43q0 57 -21 57q-10 0 -16 -14q-1 -5 -1 -30l-17 -21l-17 21
q0 36 5 47q8 29 45 29q60 0 60 -86zM275 716l-36 -21l-59 63l-53 -63l-40 21l95 113z" />
    <glyph glyph-name="glyph290" unicode="&#x1ea9;" horiz-adv-x="349" 
d="M302 0h-83v58q-17 -34 -31 -47q-20 -18 -52 -18q-106 -1 -106 236q0 225 108 225q49 0 81 -57v50h83v-447zM222 223q1 156 -53 156q-39 0 -50 -63q-4 -23 -4 -93q0 -69 4 -92q11 -62 50 -63q52 -2 53 155zM319 650q0 -62 -38 -65v-22l-17 -20l-14 20v38q1 0 3.5 4t4.5 3
q27 0 27 38q0 32 -3 40q-5 13 -16 13q-9 0 -14 -13q-1 -5 -1 -27l-15 -20l-16 20q0 33 5 42q8 25 41 25q53 0 53 -76zM250 505l-32 -18l-52 56l-48 -56l-36 18l86 102z" />
    <glyph glyph-name="glyph291" unicode="&#x1eaa;" horiz-adv-x="360" 
d="M359 0h-89l-25 130h-132l-26 -130h-86l145 667h70zM232 199l-20 107q-14 73 -32 231q-10 -109 -38 -252l-17 -86h107zM275 716l-36 -21l-59 63l-53 -63l-40 21l95 113zM290 922q-38 -65 -95 -65q-17 0 -41 19q-4 2 -15 6q-13 0 -29 -18l-42 -5q44 65 96 64q20 -1 38 -17
q6 -6 20 -8q10 -2 28 18z" />
    <glyph glyph-name="glyph292" unicode="&#x1eab;" horiz-adv-x="349" 
d="M302 0h-83v58q-17 -34 -31 -47q-20 -18 -52 -18q-106 -1 -106 236q0 225 108 225q49 0 81 -57v50h83v-447zM222 223q1 156 -53 156q-39 0 -50 -63q-4 -23 -4 -93q0 -69 4 -92q11 -62 50 -63q52 -2 53 155zM251 505l-32 -17l-53 56l-48 -56l-35 17l85 103zM265 691
q-38 -59 -85 -59q-14 0 -37 18q-4 2 -14 6q-12 0 -27 -17l-37 -4q41 59 87 58q15 0 34 -16q4 -5 18 -8q9 -1 25 17z" />
    <glyph glyph-name="glyph293" unicode="&#x1eac;" horiz-adv-x="360" 
d="M359 0h-89l-25 130h-132l-26 -130h-86l145 667h70zM232 199l-20 107q-14 73 -32 231q-10 -109 -38 -252l-17 -86h107zM275 716l-36 -21l-59 63l-53 -63l-40 21l95 113zM228 -65q1 -20 -13.5 -34t-34.5 -15t-33.5 14t-14.5 35q-1 19 14 32.5t34 14.5q20 1 33.5 -13
t14.5 -34z" />
    <glyph glyph-name="glyph294" unicode="&#x1ead;" horiz-adv-x="349" 
d="M302 0h-83v58q-17 -34 -31 -47q-20 -18 -52 -18q-106 -1 -106 236q0 225 108 225q49 0 81 -57v50h83v-447zM222 223q1 156 -53 156q-39 0 -50 -63q-4 -23 -4 -93q0 -69 4 -92q11 -62 50 -63q52 -2 53 155zM250 506l-33 -18l-52 56l-48 -56l-35 18l85 102zM211 -90
q1 -19 -12.5 -31.5t-32.5 -13.5q-15 -1 -33 12q-12 14 -12 33q0 43 45 45q19 1 31.5 -12.5t13.5 -32.5z" />
    <glyph glyph-name="glyph295" unicode="&#x1eae;" horiz-adv-x="360" 
d="M359 0h-89l-25 130h-132l-26 -130h-86l145 667h70zM232 199l-20 107q-14 73 -32 231q-10 -109 -38 -252l-17 -86h107zM275 907l-95 -97l-9 39l80 131zM278 801q-6 -97 -98 -97q-88 0 -97 97l52 -4q0 -52 45 -53q41 0 46 53z" />
    <glyph glyph-name="glyph296" unicode="&#x1eaf;" horiz-adv-x="349" 
d="M302 0h-83v58q-17 -34 -31 -47q-20 -18 -52 -18q-106 -1 -106 236q0 225 108 225q49 0 81 -57v50h83v-447zM222 223q1 156 -53 156q-39 0 -50 -63q-4 -23 -4 -93q0 -69 4 -92q11 -62 50 -63q52 -2 53 155zM251 684l-85 -88l-8 36l72 117zM254 589q-2 -88 -88 -88
q-78 0 -88 88l48 -4q0 -47 40 -48q37 0 42 48z" />
    <glyph glyph-name="glyph297" unicode="&#x1eb0;" horiz-adv-x="360" 
d="M359 0h-89l-25 130h-132l-26 -130h-86l145 667h70zM232 199l-20 107q-14 73 -32 231q-10 -109 -38 -252l-17 -86h107zM189 849l-9 -39l-94 97l23 73zM278 801q-6 -97 -98 -97q-88 0 -97 97l52 -4q0 -52 45 -53q41 0 46 53z" />
    <glyph glyph-name="glyph298" unicode="&#x1eb1;" horiz-adv-x="349" 
d="M302 0h-83v58q-17 -34 -31 -47q-20 -18 -52 -18q-106 -1 -106 236q0 225 108 225q49 0 81 -57v50h83v-447zM222 223q1 156 -53 156q-39 0 -50 -63q-4 -23 -4 -93q0 -69 4 -92q11 -62 50 -63q52 -2 53 155zM174 631l-8 -36l-85 89l21 64zM254 588q-2 -88 -88 -88
q-78 0 -88 88l48 -4q1 -46 40 -47q20 -1 30 11q9 9 12 36z" />
    <glyph glyph-name="glyph299" unicode="&#x1eb2;" horiz-adv-x="360" 
d="M359 0h-89l-25 130h-132l-26 -130h-86l145 667h70zM232 199l-20 107q-14 73 -32 231q-10 -109 -38 -252l-17 -86h107zM242 929q0 -35 -11 -52q-7 -19 -32 -20v-25l-19 -22l-15 22v42q1 0 3.5 4.5t4.5 3.5q30 0 30 43q0 36 -3 45q-6 13 -17 13t-16 -14q-1 -6 -1 -30
l-17 -22l-18 22q0 36 5 47q8 28 46 28q60 0 60 -85zM278 801q-6 -97 -98 -97q-88 0 -97 97l52 -4q0 -52 45 -53q41 0 46 53z" />
    <glyph glyph-name="glyph300" unicode="&#x1eb3;" horiz-adv-x="349" 
d="M302 0h-83v58q-17 -34 -31 -47q-20 -18 -52 -18q-106 -1 -106 236q0 225 108 225q49 0 81 -57v50h83v-447zM222 223q1 156 -53 156q-39 0 -50 -63q-4 -23 -4 -93q0 -69 4 -92q11 -62 50 -63q52 -2 53 155zM221 702q0 -63 -38 -65v-22l-17 -20l-14 20v38l3 4q3 4 5 3
q26 0 26 39q0 51 -18 51q-9 0 -15 -12q-1 -4 -1 -28l-15 -18l-16 18q0 33 6 43q7 26 41 26q53 0 53 -77zM254 587q-5 -87 -88 -87q-80 0 -88 87l47 -4q1 -46 41 -47q39 0 41 47z" />
    <glyph glyph-name="glyph301" unicode="&#x1eb4;" horiz-adv-x="360" 
d="M359 0h-89l-25 130h-132l-26 -130h-86l145 667h70zM232 199l-20 107q-14 73 -32 231q-10 -109 -38 -252l-17 -86h107zM278 801q-6 -97 -98 -97q-88 0 -97 97l52 -4q0 -52 45 -53q41 0 46 53zM380 893q-39 -65 -95 -65q-17 0 -41 20q-4 1 -15 6q-13 0 -29 -19l-42 -4
q44 66 96 64q19 -1 38 -17q6 -7 20 -9q10 -2 28 19z" />
    <glyph glyph-name="glyph302" unicode="&#x1eb5;" horiz-adv-x="349" 
d="M302 0h-83v58q-17 -34 -31 -47q-20 -18 -52 -18q-106 -1 -106 236q0 225 108 225q49 0 81 -57v50h83v-447zM222 223q1 156 -53 156q-39 0 -50 -63q-4 -23 -4 -93q0 -69 4 -92q11 -62 50 -63q52 -2 53 155zM255 587q-6 -87 -88 -87q-80 0 -88 87l47 -3q1 -47 41 -47
q37 0 42 47zM346 670q-14 -26 -36 -42q-18 -17 -49 -17q-15 0 -36 18l-15 6q-13 0 -26 -17l-38 -4q41 59 87 58q18 0 34 -16q7 -7 18 -8q8 -1 25 17z" />
    <glyph glyph-name="glyph303" unicode="&#x1eb6;" horiz-adv-x="360" 
d="M359 0h-89l-25 130h-132l-26 -130h-86l145 667h70zM232 199l-20 107q-14 73 -32 231q-10 -109 -38 -252l-17 -86h107zM278 801q-6 -97 -98 -97q-88 0 -97 97l52 -4q0 -52 45 -53q41 0 46 53zM228 -65q1 -20 -13.5 -34t-34.5 -15t-33.5 14t-14.5 35q-1 19 14 32.5t34 14.5
q20 1 33.5 -13t14.5 -34z" />
    <glyph glyph-name="glyph304" unicode="&#x1eb7;" horiz-adv-x="349" 
d="M302 0h-83v58q-17 -34 -31 -47q-20 -18 -52 -18q-106 -1 -106 236q0 225 108 225q49 0 81 -57v50h83v-447zM222 223q1 156 -53 156q-39 0 -50 -63q-4 -23 -4 -93q0 -69 4 -92q11 -62 50 -63q52 -2 53 155zM211 -90q1 -19 -12.5 -31.5t-32.5 -13.5q-15 -1 -33 12
q-12 14 -12 33q0 43 45 45q19 1 31.5 -12.5t13.5 -32.5zM254 589q-2 -88 -88 -88q-78 0 -88 88l48 -4q0 -47 40 -48q37 0 42 48z" />
    <glyph glyph-name="glyph305" unicode="&#x1eb8;" horiz-adv-x="321" 
d="M290 0h-239v667h239v-76h-149v-212h132v-76h-132v-227h149v-76zM219 -83q1 -20 -13.5 -34t-34.5 -15t-33.5 14t-14.5 35q-1 19 14 32.5t34 14.5q20 1 33.5 -13t14.5 -34z" />
    <glyph glyph-name="glyph306" unicode="&#x1eb9;" horiz-adv-x="326" 
d="M299 207h-188q3 -142 57 -143q49 -1 51 87h77q-10 -157 -129 -158q-137 -1 -137 228q0 231 133 232q136 1 136 -246zM215 266q-2 48 -8 71q-12 45 -44 46q-31 1 -43 -46q-3 -11 -9 -71h104zM211 -90q1 -19 -12.5 -31.5t-32.5 -13.5q-15 -1 -33 12q-12 14 -12 33
q0 43 45 45q19 1 31.5 -12.5t13.5 -32.5z" />
    <glyph glyph-name="glyph307" unicode="&#x1eba;" horiz-adv-x="321" 
d="M290 0h-239v667h239v-76h-149v-212h132v-76h-132v-227h149v-76zM232 832q0 -35 -11 -52q-7 -19 -32 -21v-24l-19 -22l-15 22v42q1 0 3.5 4.5t4.5 3.5q30 0 30 43q0 36 -3 45q-6 13 -17 13t-16 -14q-1 -6 -1 -31l-17 -21l-18 21q0 37 6 48q8 28 45 28q60 0 60 -85z" />
    <glyph glyph-name="glyph308" unicode="&#x1ebb;" horiz-adv-x="326" 
d="M299 207h-188q3 -142 57 -143q49 -1 51 87h77q-10 -157 -129 -158q-137 -1 -137 228q0 231 133 232q136 1 136 -246zM215 266q-2 48 -8 71q-12 45 -44 46q-31 1 -43 -46q-3 -11 -9 -71h104zM222 619q0 -62 -38 -66v-21l-17 -20l-14 20v38q1 0 3.5 3.5t3.5 3.5q28 0 28 38
q0 31 -4 40q-4 13 -15 13q-9 0 -14 -13q-1 -5 -1 -28l-15 -19l-16 19q0 32 4 43q9 25 41 25q54 0 54 -76z" />
    <glyph glyph-name="glyph309" unicode="&#x1ebc;" horiz-adv-x="321" 
d="M290 0h-239v667h239v-76h-149v-212h132v-76h-132v-227h149v-76zM279 787q-39 -65 -95 -65q-16 0 -41 20q-4 1 -15 6q-13 0 -29 -19l-42 -4q45 66 96 64q20 -1 39 -17q6 -7 19 -9q10 -2 28 19z" />
    <glyph glyph-name="glyph310" unicode="&#x1ebd;" horiz-adv-x="326" 
d="M299 207h-188q3 -142 57 -143q49 -1 51 87h77q-10 -157 -129 -158q-137 -1 -137 228q0 231 133 232q136 1 136 -246zM215 266q-2 48 -8 71q-12 45 -44 46q-31 1 -43 -46q-3 -11 -9 -71h104zM265 579q-38 -59 -85 -59q-14 0 -37 18q-4 3 -14 7q-12 0 -27 -17l-37 -5
q41 60 87 58q17 -1 34 -15q4 -6 18 -8q9 -2 25 17z" />
    <glyph glyph-name="glyph311" unicode="&#x1ebe;" horiz-adv-x="321" 
d="M290 0h-239v667h239v-76h-149v-212h132v-76h-132v-227h149v-76zM358 864l-94 -98l-9 40l80 130zM264 725l-36 -21l-59 62l-53 -62l-39 21l94 113z" />
    <glyph glyph-name="glyph312" unicode="&#x1ebf;" horiz-adv-x="326" 
d="M299 207h-188q3 -142 57 -143q49 -1 51 87h77q-10 -157 -129 -158q-137 -1 -137 228q0 231 133 232q136 1 136 -246zM215 266q-2 48 -8 71q-12 45 -44 46q-31 1 -43 -46q-3 -11 -9 -71h104zM335 631l-85 -87l-8 34l72 118zM250 506l-33 -18l-52 56l-48 -56l-35 18l85 102
z" />
    <glyph glyph-name="glyph313" unicode="&#x1ec0;" horiz-adv-x="321" 
d="M290 0h-239v667h239v-76h-149v-212h132v-76h-132v-227h149v-76zM85 807l-9 -40l-95 98l23 72zM264 725l-36 -20l-59 62l-53 -62l-39 20l94 114z" />
    <glyph glyph-name="glyph314" unicode="&#x1ec1;" horiz-adv-x="326" 
d="M299 207h-188q3 -142 57 -143q49 -1 51 87h77q-10 -157 -129 -158q-137 -1 -137 228q0 231 133 232q136 1 136 -246zM215 266q-2 48 -8 71q-12 45 -44 46q-31 1 -43 -46q-3 -11 -9 -71h104zM90 578l-8 -35l-86 87l22 65zM250 505l-32 -18l-52 56l-48 -56l-35 18l85 102z
" />
    <glyph glyph-name="glyph315" unicode="&#x1ec2;" horiz-adv-x="321" 
d="M290 0h-239v667h239v-76h-149v-212h132v-76h-132v-227h149v-76zM340 885q0 -69 -42 -72v-24l-19 -23l-15 23v42l3 5q3 4 5 3q30 0 30 42q0 36 -3 45q-6 13 -17 13t-16 -14q-1 -5 -1 -30l-17 -22l-18 22q0 36 5 47q8 29 46 29q59 0 59 -86zM264 725l-36 -21l-59 62
l-53 -62l-39 21l94 113z" />
    <glyph glyph-name="glyph316" unicode="&#x1ec3;" horiz-adv-x="326" 
d="M299 207h-188q3 -142 57 -143q49 -1 51 87h77q-10 -157 -129 -158q-137 -1 -137 228q0 231 133 232q136 1 136 -246zM215 266q-2 48 -8 71q-12 45 -44 46q-31 1 -43 -46q-3 -11 -9 -71h104zM319 650q0 -62 -38 -65v-22l-17 -20l-14 20v38q1 0 3.5 4t4.5 3q27 0 27 38
q0 32 -3 40q-5 13 -16 13q-9 0 -14 -13q-1 -5 -1 -27l-15 -20l-16 20q0 33 5 42q8 25 41 25q53 0 53 -76zM250 505l-32 -18l-52 56l-48 -56l-36 18l86 102z" />
    <glyph glyph-name="glyph317" unicode="&#x1ec4;" horiz-adv-x="321" 
d="M290 0h-239v667h239v-76h-149v-212h132v-76h-132v-227h149v-76zM264 725l-36 -21l-59 62l-53 -62l-39 21l94 113zM279 930q-39 -65 -95 -65q-16 0 -41 20q-4 2 -15 6q-13 0 -29 -18l-42 -5q45 65 96 64q20 -1 39 -17q7 -6 19 -9q10 -1 28 19z" />
    <glyph glyph-name="glyph318" unicode="&#x1ec5;" horiz-adv-x="326" 
d="M299 207h-188q3 -142 57 -143q49 -1 51 87h77q-10 -157 -129 -158q-137 -1 -137 228q0 231 133 232q136 1 136 -246zM215 266q-2 48 -8 71q-12 45 -44 46q-31 1 -43 -46q-3 -11 -9 -71h104zM251 505l-32 -17l-53 56l-48 -56l-35 17l85 103zM265 691q-38 -59 -85 -59
q-14 0 -37 18q-4 2 -14 6q-12 0 -27 -17l-37 -4q41 59 87 58q15 0 34 -16q4 -5 18 -8q9 -1 25 17z" />
    <glyph glyph-name="glyph319" unicode="&#x1ec6;" horiz-adv-x="321" 
d="M290 0h-239v667h239v-76h-149v-212h132v-76h-132v-227h149v-76zM264 725l-36 -21l-59 62l-53 -62l-39 21l94 113zM219 -83q1 -20 -13.5 -34t-34.5 -15t-33.5 14t-14.5 35q-1 19 14 32.5t34 14.5q20 1 33.5 -13t14.5 -34z" />
    <glyph glyph-name="glyph320" unicode="&#x1ec7;" horiz-adv-x="326" 
d="M299 207h-188q3 -142 57 -143q49 -1 51 87h77q-10 -157 -129 -158q-137 -1 -137 228q0 231 133 232q136 1 136 -246zM215 266q-2 48 -8 71q-12 45 -44 46q-31 1 -43 -46q-3 -11 -9 -71h104zM250 506l-33 -18l-52 56l-48 -56l-35 18l85 102zM211 -90q1 -19 -12.5 -31.5
t-32.5 -13.5q-15 -1 -33 12q-12 14 -12 33q0 43 45 45q19 1 31.5 -12.5t13.5 -32.5z" />
    <glyph glyph-name="glyph321" unicode="&#x1ec8;" horiz-adv-x="193" 
d="M141 0h-90v667h90v-667zM158 832q0 -35 -11 -52q-7 -19 -32 -21v-24l-19 -22l-15 22v42q1 0 3.5 4.5t4.5 3.5q30 0 30 43q0 37 -3 45q-5 13 -17 13q-11 0 -16 -14q-1 -6 -1 -31l-17 -21l-18 21q0 37 6 48q8 28 45 28q60 0 60 -85z" />
    <glyph glyph-name="glyph322" unicode="&#x1ec9;" horiz-adv-x="176" 
d="M130 0h-83v447h83v-447zM143 607q0 -62 -38 -65v-22l-17 -20l-13 20v38q1 0 3 4t4 3q28 0 28 38q0 53 -19 53q-10 0 -14 -13q-1 -5 -1 -27l-15 -20l-16 20q0 32 4 43q9 25 41 25q53 0 53 -77z" />
    <glyph glyph-name="glyph323" unicode="&#x1eca;" horiz-adv-x="193" 
d="M141 0h-90v667h90v-667zM141 -83q1 -20 -13.5 -34t-34.5 -15t-33.5 13.5t-14.5 35.5q-1 20 13.5 33t34.5 14q19 1 33 -13t15 -34z" />
    <glyph glyph-name="glyph324" unicode="&#x1ecb;" horiz-adv-x="176" 
d="M134 559q1 -19 -13 -32t-33 -14q-13 0 -33 13q-11 14 -11 33t11 31q15 13 33 14q19 1 32 -12.5t14 -32.5zM130 0h-83v447h83v-447zM134 -81q1 -19 -13 -32t-33 -14q-13 0 -33 13q-11 14 -11 33t11 31q15 13 33 14q19 1 32 -12.5t14 -32.5z" />
    <glyph glyph-name="glyph325" unicode="&#x1ecc;" horiz-adv-x="423" 
d="M385 317q0 -143 -21 -208q-38 -118 -148 -118q-121 0 -159 129q-19 65 -19 229q0 142 22 210q38 117 149 117q119 0 157 -131q19 -66 19 -228zM291 308q2 136 -2 164q-16 123 -76 123q-51 0 -68 -61q-12 -42 -13 -212q-1 -110 5 -146q16 -101 75 -102q58 -1 73 95
q5 29 6 139zM264 -101q1 -20 -13.5 -34t-34.5 -15t-33.5 13.5t-14.5 35.5q-1 20 13.5 33.5t34.5 14.5q19 0 33 -14.5t15 -33.5z" />
    <glyph glyph-name="glyph326" unicode="&#x1ecd;" 
d="M311 221q0 -228 -140 -228q-141 0 -141 228q0 232 141 233q140 1 140 -233zM226 222q0 69 -4 92q-11 64 -49 65t-49 -64q-5 -29 -5 -93q0 -61 5 -89q11 -62 49 -63q53 -1 53 152zM211 -90q1 -19 -12.5 -31.5t-32.5 -13.5q-15 -1 -33 12q-12 14 -12 33q0 43 45 45
q19 1 31.5 -12.5t13.5 -32.5z" />
    <glyph glyph-name="glyph327" unicode="&#x1ece;" horiz-adv-x="423" 
d="M385 317q0 -143 -21 -208q-38 -118 -148 -118q-121 0 -159 129q-19 65 -19 229q0 142 22 210q38 117 149 117q119 0 157 -131q19 -66 19 -228zM291 308q2 136 -2 164q-16 123 -76 123q-51 0 -68 -61q-12 -42 -13 -212q-1 -110 5 -146q16 -101 75 -102q58 -1 73 95
q5 29 6 139zM270 840q0 -34 -11 -51q-7 -19 -32 -21v-24l-18 -22l-16 22v42q1 0 4 4.5t4 3.5q31 0 31 43q0 36 -4 44q-5 14 -17 14q-10 0 -16 -14q-1 -6 -1 -31l-17 -21l-17 21q0 37 5 48q8 28 45 28q60 0 60 -86z" />
    <glyph glyph-name="glyph328" unicode="&#x1ecf;" 
d="M311 221q0 -228 -140 -228q-141 0 -141 228q0 232 141 233q140 1 140 -233zM226 222q0 69 -4 92q-11 64 -49 65t-49 -64q-5 -29 -5 -93q0 -61 5 -89q11 -62 49 -63q53 -1 53 152zM222 619q0 -62 -38 -66v-21l-17 -20l-14 20v38q1 0 3.5 3.5t3.5 3.5q28 0 28 38
q0 31 -4 40q-4 13 -15 13q-9 0 -14 -13q-1 -5 -1 -28l-15 -19l-16 19q0 32 4 43q9 25 41 25q54 0 54 -76z" />
    <glyph glyph-name="glyph329" unicode="&#x1ed0;" horiz-adv-x="423" 
d="M385 317q0 -143 -21 -208q-38 -118 -148 -118q-121 0 -159 129q-19 65 -19 229q0 142 22 210q38 117 149 117q119 0 157 -131q19 -66 19 -228zM291 308q2 136 -2 164q-16 123 -76 123q-51 0 -68 -61q-12 -42 -13 -212q-1 -110 5 -146q16 -101 75 -102q58 -1 73 95
q5 29 6 139zM398 855l-95 -97l-9 39l80 130zM303 716l-36 -21l-58 63l-54 -63l-39 21l94 113z" />
    <glyph glyph-name="glyph330" unicode="&#x1ed1;" 
d="M311 221q0 -228 -140 -228q-141 0 -141 228q0 232 141 233q140 1 140 -233zM226 222q0 69 -4 92q-11 64 -49 65t-49 -64q-5 -29 -5 -93q0 -61 5 -89q11 -62 49 -63q53 -1 53 152zM335 631l-85 -87l-8 34l72 118zM250 506l-33 -18l-52 56l-48 -56l-35 18l85 102z" />
    <glyph glyph-name="glyph331" unicode="&#x1ed2;" horiz-adv-x="423" 
d="M385 317q0 -143 -21 -208q-38 -118 -148 -118q-121 0 -159 129q-19 65 -19 229q0 142 22 210q38 117 149 117q119 0 157 -131q19 -66 19 -228zM291 308q2 136 -2 164q-16 123 -76 123q-51 0 -68 -61q-12 -42 -13 -212q-1 -110 5 -146q16 -101 75 -102q58 -1 73 95
q5 29 6 139zM124 797l-9 -39l-95 97l24 72zM303 716l-36 -21l-58 63l-54 -63l-39 21l94 113z" />
    <glyph glyph-name="glyph332" unicode="&#x1ed3;" 
d="M311 221q0 -228 -140 -228q-141 0 -141 228q0 232 141 233q140 1 140 -233zM226 222q0 69 -4 92q-11 64 -49 65t-49 -64q-5 -29 -5 -93q0 -61 5 -89q11 -62 49 -63q53 -1 53 152zM90 578l-8 -35l-86 87l22 65zM250 505l-32 -18l-52 56l-48 -56l-35 18l85 102z" />
    <glyph glyph-name="glyph333" unicode="&#x1ed4;" horiz-adv-x="423" 
d="M385 317q0 -143 -21 -208q-38 -118 -148 -118q-121 0 -159 129q-19 65 -19 229q0 142 22 210q38 117 149 117q119 0 157 -131q19 -66 19 -228zM291 308q2 136 -2 164q-16 123 -76 123q-51 0 -68 -61q-12 -42 -13 -212q-1 -110 5 -146q16 -101 75 -102q58 -1 73 95
q5 29 6 139zM380 876q0 -35 -11 -52q-7 -18 -32 -20v-24l-19 -22l-15 22v42q1 0 3.5 4.5t4.5 3.5q30 0 30 43q0 35 -3 44q-6 13 -17 13t-16 -14q-1 -5 -1 -30l-17 -21l-18 21q0 36 6 47q8 29 45 29q60 0 60 -86zM303 716l-36 -21l-58 63l-54 -63l-39 21l94 113z" />
    <glyph glyph-name="glyph334" unicode="&#x1ed5;" 
d="M311 221q0 -228 -140 -228q-141 0 -141 228q0 232 141 233q140 1 140 -233zM226 222q0 69 -4 92q-11 64 -49 65t-49 -64q-5 -29 -5 -93q0 -61 5 -89q11 -62 49 -63q53 -1 53 152zM319 650q0 -62 -38 -65v-22l-17 -20l-14 20v38q1 0 3.5 4t4.5 3q27 0 27 38q0 32 -3 40
q-5 13 -16 13q-9 0 -14 -13q-1 -5 -1 -27l-15 -20l-16 20q0 33 5 42q8 25 41 25q53 0 53 -76zM250 505l-32 -18l-52 56l-48 -56l-36 18l86 102z" />
    <glyph glyph-name="glyph335" unicode="&#x1ed6;" horiz-adv-x="423" 
d="M385 317q0 -143 -21 -208q-38 -118 -148 -118q-121 0 -159 129q-19 65 -19 229q0 142 22 210q38 117 149 117q119 0 157 -131q19 -66 19 -228zM291 308q2 136 -2 164q-16 123 -76 123q-51 0 -68 -61q-12 -42 -13 -212q-1 -110 5 -146q16 -101 75 -102q58 -1 73 95
q5 29 6 139zM303 717l-36 -21l-58 62l-54 -62l-39 21l94 113zM318 922q-18 -30 -40 -46q-21 -19 -54 -19q-17 0 -41 20q-5 3 -15 6q-14 0 -30 -18l-42 -5q45 65 97 64q19 -1 38 -17q6 -7 19 -9q10 -1 28 19z" />
    <glyph glyph-name="glyph336" unicode="&#x1ed7;" 
d="M311 221q0 -228 -140 -228q-141 0 -141 228q0 232 141 233q140 1 140 -233zM226 222q0 69 -4 92q-11 64 -49 65t-49 -64q-5 -29 -5 -93q0 -61 5 -89q11 -62 49 -63q53 -1 53 152zM251 505l-32 -17l-53 56l-48 -56l-35 17l85 103zM265 691q-38 -59 -85 -59q-14 0 -37 18
q-4 2 -14 6q-12 0 -27 -17l-37 -4q41 59 87 58q15 0 34 -16q4 -5 18 -8q9 -1 25 17z" />
    <glyph glyph-name="glyph337" unicode="&#x1ed8;" horiz-adv-x="423" 
d="M385 317q0 -143 -21 -208q-38 -118 -148 -118q-121 0 -159 129q-19 65 -19 229q0 142 22 210q38 117 149 117q119 0 157 -131q19 -66 19 -228zM291 308q2 136 -2 164q-16 123 -76 123q-51 0 -68 -61q-12 -42 -13 -212q-1 -110 5 -146q16 -101 75 -102q58 -1 73 95
q5 29 6 139zM303 716l-36 -21l-58 63l-54 -63l-39 21l94 113zM264 -101q1 -20 -13.5 -34t-34.5 -15t-33.5 13.5t-14.5 35.5q-1 20 13.5 33.5t34.5 14.5q19 0 33 -14.5t15 -33.5z" />
    <glyph glyph-name="glyph338" unicode="&#x1ed9;" 
d="M311 221q0 -228 -140 -228q-141 0 -141 228q0 232 141 233q140 1 140 -233zM226 222q0 69 -4 92q-11 64 -49 65t-49 -64q-5 -29 -5 -93q0 -61 5 -89q11 -62 49 -63q53 -1 53 152zM250 506l-33 -18l-52 56l-48 -56l-35 18l85 102zM211 -90q1 -19 -12.5 -31.5t-32.5 -13.5
q-15 -1 -33 12q-12 14 -12 33q0 43 45 45q19 1 31.5 -12.5t13.5 -32.5z" />
    <glyph glyph-name="glyph339" unicode="&#x1eda;" horiz-adv-x="423" 
d="M291 308q2 136 -2 164q-16 123 -76 123q-51 0 -68 -61q-12 -42 -13 -212q-1 -110 5 -146q16 -101 75 -102q58 -1 73 95q5 29 6 139zM333 684q0 10 -13 20q0 27 4 27q1 8 15 6q12 -1 17 -6q20 -19 24 -37q6 -26 -12 -42.5t-45 -20.5q62 -69 62 -314q0 -143 -21 -208
q-38 -118 -148 -118q-121 0 -159 129q-19 65 -19 229q0 142 22 210q38 117 149 117q49 0 82 -19l31 10q11 4 11 17zM303 828l-94 -97l-9 39l80 130z" />
    <glyph glyph-name="glyph340" unicode="&#x1edb;" 
d="M226 222q0 69 -4 92q-11 64 -49 65t-49 -64q-5 -29 -5 -93q0 -61 5 -89q11 -62 49 -63q53 -1 53 152zM225 443l40 4l5 -1l6 6q4 5 4 10q0 9 -12 18q0 24 4 24q1 6 12 5q12 -1 16 -5q18 -17 22 -33q6 -24 -10.5 -39t-41.5 -18l-3 -6q44 -57 44 -187q0 -228 -140 -228
q-141 0 -141 228q0 232 141 233q28 0 54 -11zM251 608l-85 -88l-8 35l72 118z" />
    <glyph glyph-name="glyph341" unicode="&#x1edc;" horiz-adv-x="423" 
d="M291 308q2 136 -2 164q-16 123 -76 123q-51 0 -68 -61q-12 -42 -13 -212q-1 -110 5 -146q16 -101 75 -102q58 -1 73 95q5 29 6 139zM333 684q0 10 -13 20q0 27 4 27q1 8 15 6q12 -1 17 -6q20 -19 24 -37q6 -26 -12 -42.5t-45 -20.5q62 -69 62 -314q0 -143 -21 -208
q-38 -118 -148 -118q-121 0 -159 129q-19 65 -19 229q0 142 22 210q38 117 149 117q49 0 82 -19l31 10q11 4 11 17zM217 770l-8 -39l-95 97l23 72z" />
    <glyph glyph-name="glyph342" unicode="&#x1edd;" 
d="M226 222q0 69 -4 92q-11 64 -49 65t-49 -64q-5 -29 -5 -93q0 -61 5 -89q11 -62 49 -63q53 -1 53 152zM225 443l40 4l5 -1l6 6q4 5 4 10q0 9 -12 18q0 24 4 24q1 6 12 5q12 -1 16 -5q18 -17 22 -33q6 -24 -10.5 -39t-41.5 -18l-3 -6q44 -57 44 -187q0 -228 -140 -228
q-141 0 -141 228q0 232 141 233q28 0 54 -11zM174 555l-8 -35l-86 88l22 65z" />
    <glyph glyph-name="glyph343" unicode="&#x1ede;" horiz-adv-x="423" 
d="M291 308q2 136 -2 164q-16 123 -76 123q-51 0 -68 -61q-12 -42 -13 -212q-1 -110 5 -146q16 -101 75 -102q58 -1 73 95q5 29 6 139zM333 684q0 10 -13 20q0 27 4 27q1 8 15 6q12 -1 17 -6q20 -19 24 -37q6 -26 -12 -42.5t-45 -20.5q62 -69 62 -314q0 -143 -21 -208
q-38 -118 -148 -118q-121 0 -159 129q-19 65 -19 229q0 142 22 210q38 117 149 117q49 0 82 -19l31 10q11 4 11 17zM270 840q0 -34 -11 -51q-7 -19 -32 -21v-24l-18 -22l-16 22v42q1 0 4 4.5t4 3.5q31 0 31 43q0 36 -4 44q-5 14 -17 14q-10 0 -16 -14q-1 -6 -1 -31l-17 -21
l-17 21q0 37 5 48q8 28 45 28q60 0 60 -86z" />
    <glyph glyph-name="glyph344" unicode="&#x1edf;" 
d="M226 222q0 69 -4 92q-11 64 -49 65t-49 -64q-5 -29 -5 -93q0 -61 5 -89q11 -62 49 -63q53 -1 53 152zM225 443l40 4l5 -1l6 6q4 5 4 10q0 9 -12 18q0 24 4 24q1 6 12 5q12 -1 16 -5q18 -17 22 -33q6 -24 -10.5 -39t-41.5 -18l-3 -6q44 -57 44 -187q0 -228 -140 -228
q-141 0 -141 228q0 232 141 233q28 0 54 -11zM222 619q0 -62 -38 -66v-21l-17 -20l-14 20v38q1 0 3.5 3.5t3.5 3.5q28 0 28 38q0 31 -4 40q-4 13 -15 13q-9 0 -14 -13q-1 -5 -1 -28l-15 -19l-16 19q0 32 4 43q9 25 41 25q54 0 54 -76z" />
    <glyph glyph-name="glyph345" unicode="&#x1ee0;" horiz-adv-x="423" 
d="M291 308q2 136 -2 164q-16 123 -76 123q-51 0 -68 -61q-12 -42 -13 -212q-1 -110 5 -146q16 -101 75 -102q58 -1 73 95q5 29 6 139zM333 684q0 10 -13 20q0 27 4 27q1 8 15 6q12 -1 17 -6q20 -19 24 -37q6 -26 -12 -42.5t-45 -20.5q62 -69 62 -314q0 -143 -21 -208
q-38 -118 -148 -118q-121 0 -159 129q-19 65 -19 229q0 142 22 210q38 117 149 117q49 0 82 -19l31 10q11 4 11 17zM318 796q-18 -30 -40 -46q-21 -19 -54 -19q-17 0 -41 19q-5 2 -15 7q-14 0 -30 -19l-42 -4q45 66 97 64q19 -1 38 -17q6 -7 19 -9q10 -2 28 19z" />
    <glyph glyph-name="glyph346" unicode="&#x1ee1;" 
d="M226 222q0 69 -4 92q-11 64 -49 65t-49 -64q-5 -29 -5 -93q0 -61 5 -89q11 -62 49 -63q53 -1 53 152zM225 443l40 4l5 -1l6 6q4 5 4 10q0 9 -12 18q0 24 4 24q1 6 12 5q12 -1 16 -5q18 -17 22 -33q6 -24 -10.5 -39t-41.5 -18l-3 -6q44 -57 44 -187q0 -228 -140 -228
q-141 0 -141 228q0 232 141 233q28 0 54 -11zM265 579q-38 -59 -85 -59q-14 0 -37 18q-4 3 -14 7q-12 0 -27 -17l-37 -5q41 60 87 58q17 -1 34 -15q4 -6 18 -8q9 -2 25 17z" />
    <glyph glyph-name="glyph347" unicode="&#x1ee2;" horiz-adv-x="423" 
d="M291 308q2 136 -2 164q-16 123 -76 123q-51 0 -68 -61q-12 -42 -13 -212q-1 -110 5 -146q16 -101 75 -102q58 -1 73 95q5 29 6 139zM333 684q0 10 -13 20q0 27 4 27q1 8 15 6q12 -1 17 -6q20 -19 24 -37q6 -26 -12 -42.5t-45 -20.5q62 -69 62 -314q0 -143 -21 -208
q-38 -118 -148 -118q-121 0 -159 129q-19 65 -19 229q0 142 22 210q38 117 149 117q49 0 82 -19l31 10q11 4 11 17zM264 -101q1 -20 -13.5 -34t-34.5 -15t-33.5 13.5t-14.5 35.5q-1 20 13.5 33.5t34.5 14.5q19 0 33 -14.5t15 -33.5z" />
    <glyph glyph-name="glyph348" unicode="&#x1ee3;" 
d="M226 222q0 69 -4 92q-11 64 -49 65t-49 -64q-5 -29 -5 -93q0 -61 5 -89q11 -62 49 -63q53 -1 53 152zM225 443l40 4l5 -1l6 6q4 5 4 10q0 9 -12 18q0 24 4 24q1 6 12 5q12 -1 16 -5q18 -17 22 -33q6 -24 -10.5 -39t-41.5 -18l-3 -6q44 -57 44 -187q0 -228 -140 -228
q-141 0 -141 228q0 232 141 233q28 0 54 -11zM211 -90q1 -19 -12.5 -31.5t-32.5 -13.5q-15 -1 -33 12q-12 14 -12 33q0 43 45 45q19 1 31.5 -12.5t13.5 -32.5z" />
    <glyph glyph-name="glyph349" unicode="&#x1ee4;" horiz-adv-x="409" 
d="M358 183q0 -96 -27 -138q-34 -53 -126 -53q-106 0 -138 73q-16 37 -16 131v471h88v-471q0 -63 6 -80q13 -37 61 -39q42 -2 56 34q8 20 8 72v484h88v-484zM255 -101q1 -20 -13.5 -34t-34.5 -15t-33.5 14t-14.5 35q-1 19 13.5 33t34.5 15q19 0 33 -14.5t15 -33.5z" />
    <glyph glyph-name="glyph350" unicode="&#x1ee5;" horiz-adv-x="359" 
d="M313 180q0 -97 -16 -128q-30 -58 -118 -59q-76 -1 -107 43q-25 36 -25 116v295h83v-267q0 -57 5 -76q8 -31 45 -32q42 -1 48 39q2 13 2 69v267h83v-267zM225 -90q1 -42 -45 -45q-15 -1 -33 12q-12 14 -12 33q0 43 45 45q43 2 45 -45z" />
    <glyph glyph-name="glyph351" unicode="&#x1ee6;" horiz-adv-x="409" 
d="M358 183q0 -96 -27 -138q-34 -53 -126 -53q-106 0 -138 73q-16 37 -16 131v471h88v-471q0 -63 6 -80q13 -37 61 -39q42 -2 56 34q8 20 8 72v484h88v-484zM262 792q0 -35 -11 -52q-7 -19 -32 -21v-24l-19 -22l-15 22v42q1 0 3.5 4.5t4.5 3.5q30 0 30 43q0 36 -3 45
q-6 13 -17 13t-16 -14q-1 -6 -1 -31l-17 -21l-18 21q0 37 6 48q8 28 45 28q60 0 60 -85z" />
    <glyph glyph-name="glyph352" unicode="&#x1ee7;" horiz-adv-x="359" 
d="M313 180q0 -97 -16 -128q-30 -58 -118 -59q-76 -1 -107 43q-25 36 -25 116v295h83v-267q0 -57 5 -76q8 -31 45 -32q42 -1 48 39q2 13 2 69v267h83v-267zM235 597q0 -62 -38 -65v-21l-17 -21l-13 21v37l3 4q2 4 4 3q27 0 27 39q0 52 -18 52q-10 0 -15 -12v-28l-16 -20
l-16 20q0 33 5 43q8 25 41 25q53 0 53 -77z" />
    <glyph glyph-name="glyph353" unicode="&#x1ee8;" horiz-adv-x="409" 
d="M358 631v-448q0 -96 -27 -138q-34 -53 -126 -53q-106 0 -138 73q-16 37 -16 131v471h88v-471q0 -63 6 -80q13 -37 61 -39q42 -2 56 34q8 20 8 72v484h88v-1q12 7 12 18q0 10 -13 20q0 27 4 27q1 8 14 6q12 -1 17 -6q20 -18 24 -37q6 -26 -12 -42.5t-46 -20.5zM300 801
l-94 -97l-9 39l80 130z" />
    <glyph glyph-name="glyph354" unicode="&#x1ee9;" horiz-adv-x="359" 
d="M318 446l6 6q4 5 4 10q0 9 -12 18q0 24 4 24q1 6 12 5q12 -1 16 -5q18 -17 22 -33q6 -24 -10.5 -39t-41.5 -18q-2 -8 -5 -6v-228q0 -97 -16 -128q-30 -58 -118 -59q-76 -1 -107 43q-25 36 -25 116v295h83v-267q0 -57 5 -76q8 -31 45 -32q42 -1 48 39q2 13 2 69v267h83z
M266 587l-86 -87l-8 35l72 117z" />
    <glyph glyph-name="glyph355" unicode="&#x1eea;" horiz-adv-x="409" 
d="M358 631v-448q0 -96 -27 -138q-34 -53 -126 -53q-106 0 -138 73q-16 37 -16 131v471h88v-471q0 -63 6 -80q13 -37 61 -39q42 -2 56 34q8 20 8 72v484h88v-1q12 7 12 18q0 10 -13 20q0 27 4 27q1 8 14 6q12 -1 17 -6q20 -18 24 -37q6 -26 -12 -42.5t-46 -20.5zM215 743
l-9 -39l-95 97l24 72z" />
    <glyph glyph-name="glyph356" unicode="&#x1eeb;" horiz-adv-x="359" 
d="M318 446l6 6q4 5 4 10q0 9 -12 18q0 24 4 24q1 6 12 5q12 -1 16 -5q18 -17 22 -33q6 -24 -10.5 -39t-41.5 -18q-2 -8 -5 -6v-228q0 -97 -16 -128q-30 -58 -118 -59q-76 -1 -107 43q-25 36 -25 116v295h83v-267q0 -57 5 -76q8 -31 45 -32q42 -1 48 39q2 13 2 69v267h83z
M188 535l-8 -35l-86 87l22 65z" />
    <glyph glyph-name="glyph357" unicode="&#x1eec;" horiz-adv-x="409" 
d="M358 631v-448q0 -96 -27 -138q-34 -53 -126 -53q-106 0 -138 73q-16 37 -16 131v471h88v-471q0 -63 6 -80q13 -37 61 -39q42 -2 56 34q8 20 8 72v484h88v-1q12 7 12 18q0 10 -13 20q0 27 4 27q1 8 14 6q12 -1 17 -6q20 -18 24 -37q6 -26 -12 -42.5t-46 -20.5zM267 814
q0 -70 -42 -72v-25l-19 -22l-15 22v42l3 5q3 4 5 3q30 0 30 43q0 58 -20 58q-11 0 -16 -14q-1 -6 -1 -30l-17 -22l-18 22q0 36 5 47q8 28 46 28q59 0 59 -85z" />
    <glyph glyph-name="glyph358" unicode="&#x1eed;" horiz-adv-x="359" 
d="M318 446l6 6q4 5 4 10q0 9 -12 18q0 24 4 24q1 6 12 5q12 -1 16 -5q18 -17 22 -33q6 -24 -10.5 -39t-41.5 -18q-2 -8 -5 -6v-228q0 -97 -16 -128q-30 -58 -118 -59q-76 -1 -107 43q-25 36 -25 116v295h83v-267q0 -57 5 -76q8 -31 45 -32q42 -1 48 39q2 13 2 69v267h83z
M235 597q0 -62 -38 -65v-21l-17 -21l-13 21v37l3 4q2 4 4 3q27 0 27 39q0 52 -18 52q-10 0 -15 -12v-28l-16 -20l-16 20q0 33 5 43q8 25 41 25q53 0 53 -77z" />
    <glyph glyph-name="glyph359" unicode="&#x1eee;" horiz-adv-x="409" 
d="M358 631v-448q0 -96 -27 -138q-34 -53 -126 -53q-106 0 -138 73q-16 37 -16 131v471h88v-471q0 -63 6 -80q13 -37 61 -39q42 -2 56 34q8 20 8 72v484h88v-1q12 7 12 18q0 10 -13 20q0 27 4 27q1 8 14 6q12 -1 17 -6q20 -18 24 -37q6 -26 -12 -42.5t-46 -20.5zM313 778
q-39 -65 -95 -65q-17 0 -41 20q-4 1 -15 6q-13 0 -29 -19l-42 -4q45 66 96 64q20 -1 38 -17q6 -7 20 -9q10 -2 28 19z" />
    <glyph glyph-name="glyph360" unicode="&#x1eef;" horiz-adv-x="359" 
d="M318 446l6 6q4 5 4 10q0 9 -12 18q0 24 4 24q1 6 12 5q12 -1 16 -5q18 -17 22 -33q6 -24 -10.5 -39t-41.5 -18q-2 -8 -5 -6v-228q0 -97 -16 -128q-30 -58 -118 -59q-76 -1 -107 43q-25 36 -25 116v295h83v-267q0 -57 5 -76q8 -31 45 -32q42 -1 48 39q2 13 2 69v267h83z
M279 568q-37 -59 -85 -59q-14 0 -37 18q-4 2 -14 6q-12 0 -26 -17l-38 -4q41 59 87 58q15 0 35 -16q4 -5 17 -8q10 -1 25 17z" />
    <glyph glyph-name="glyph361" unicode="&#x1ef0;" horiz-adv-x="409" 
d="M358 631v-448q0 -96 -27 -138q-34 -53 -126 -53q-106 0 -138 73q-16 37 -16 131v471h88v-471q0 -63 6 -80q13 -37 61 -39q42 -2 56 34q8 20 8 72v484h88v-1q12 7 12 18q0 10 -13 20q0 27 4 27q1 8 14 6q12 -1 17 -6q20 -18 24 -37q6 -26 -12 -42.5t-46 -20.5zM255 -101
q1 -20 -13.5 -34t-34.5 -15t-33.5 14t-14.5 35q-1 19 13.5 33t34.5 15q19 0 33 -14.5t15 -33.5z" />
    <glyph glyph-name="glyph362" unicode="&#x1ef1;" horiz-adv-x="359" 
d="M318 446l6 6q4 5 4 10q0 9 -12 18q0 24 4 24q1 6 12 5q12 -1 16 -5q18 -17 22 -33q6 -24 -10.5 -39t-41.5 -18q-2 -8 -5 -6v-228q0 -97 -16 -128q-30 -58 -118 -59q-76 -1 -107 43q-25 36 -25 116v295h83v-267q0 -57 5 -76q8 -31 45 -32q42 -1 48 39q2 13 2 69v267h83z
M225 -90q1 -42 -45 -45q-15 -1 -33 12q-12 14 -12 33q0 43 45 45q43 2 45 -45z" />
    <glyph glyph-name="glyph363" unicode="&#x1ef2;" 
d="M343 667l-116 -380v-287h-90v287l-139 380h95l44 -145q33 -108 43 -163q11 72 32 157l37 151h94zM180 734l-9 -39l-94 97l23 73z" />
    <glyph glyph-name="glyph364" unicode="&#x1ef3;" horiz-adv-x="326" 
d="M322 447l-182 -630h-87l69 219l-119 411h93l66 -312l77 312h83zM174 521l-8 -34l-86 87l22 65z" />
    <glyph glyph-name="glyph365" unicode="&#x1ef4;" 
d="M343 667l-116 -380v-287h-90v287l-139 380h95l44 -145q33 -108 43 -163q11 72 32 157l37 151h94zM230 -83q1 -20 -13.5 -34t-34.5 -15t-33.5 14t-14.5 35q-1 19 13.5 32.5t34.5 14.5q19 1 33 -13t15 -34z" />
    <glyph glyph-name="glyph366" unicode="&#x1ef5;" horiz-adv-x="326" 
d="M322 447l-182 -630h-87l69 219l-119 411h93l66 -312l77 312h83zM297 -81q1 -19 -13 -32t-33 -14q-13 0 -33 13q-11 14 -11 33t11 31q16 13 33 14q19 1 32 -12.5t14 -32.5z" />
    <glyph glyph-name="glyph367" unicode="&#x1ef6;" 
d="M343 667l-116 -380v-287h-90v287l-139 380h95l44 -145q33 -108 43 -163q11 72 32 157l37 151h94zM233 805q0 -35 -11 -52q-7 -19 -32 -20v-24l-19 -23l-15 23v41q1 0 3.5 4.5t4.5 3.5q30 0 30 43q0 36 -3 45q-6 13 -17 13t-16 -14q-1 -5 -1 -30l-17 -22l-18 22q0 36 5 47
q8 28 46 28q60 0 60 -85z" />
    <glyph glyph-name="glyph368" unicode="&#x1ef7;" horiz-adv-x="326" 
d="M322 447l-182 -630h-87l69 219l-119 411h93l66 -312l77 312h83zM221 584q0 -62 -38 -65v-22l-17 -20l-14 20v38q1 0 3.5 4t4.5 3q27 0 27 38q0 32 -3 40q-5 13 -16 13q-9 0 -14 -13q-1 -5 -1 -27l-15 -20l-16 20q0 33 5 42q8 25 41 25q53 0 53 -76z" />
    <glyph glyph-name="glyph369" unicode="&#x1ef8;" 
d="M343 667l-116 -380v-287h-90v287l-139 380h95l44 -145q33 -108 43 -163q11 72 32 157l37 151h94zM281 769q-39 -65 -95 -65q-17 0 -41 20q-4 1 -15 6q-13 0 -29 -19l-42 -4q44 66 96 64q19 -1 38 -17q6 -7 20 -9q10 -1 28 19z" />
    <glyph glyph-name="glyph370" unicode="&#x1ef9;" horiz-adv-x="326" 
d="M322 447l-182 -630h-87l69 219l-119 411h93l66 -312l77 312h83zM265 559q-38 -59 -85 -59q-14 0 -37 18q-4 2 -14 6q-12 0 -27 -17l-37 -4q41 60 87 58q17 -1 34 -16q4 -5 18 -8q9 -1 25 17z" />
    <glyph glyph-name="endash" unicode="&#x2013;" horiz-adv-x="379" 
d="M323 196h-266v66h266v-66z" />
    <glyph glyph-name="emdash" unicode="&#x2014;" horiz-adv-x="446" 
d="M446 196h-446v66h446v-66z" />
    <glyph glyph-name="quoteleft" unicode="&#x2018;" horiz-adv-x="204" 
d="M171 694l-59 -243l-72 21l85 235z" />
    <glyph glyph-name="quoteright" unicode="&#x2019;" horiz-adv-x="204" 
d="M171 667l-86 -235l-45 13l59 243z" />
    <glyph glyph-name="quotesinglbase" unicode="&#x201a;" horiz-adv-x="204" 
d="M164 72l-86 -235l-45 13l59 243z" />
    <glyph glyph-name="quotedblleft" unicode="&#x201c;" horiz-adv-x="325" 
d="M292 694l-59 -243l-72 21l86 235zM171 694l-59 -243l-72 21l85 235z" />
    <glyph glyph-name="quotedblright" unicode="&#x201d;" horiz-adv-x="325" 
d="M292 667l-85 -235l-46 13l59 243zM171 667l-86 -235l-45 13l59 243z" />
    <glyph glyph-name="quotedblbase" unicode="&#x201e;" horiz-adv-x="325" 
d="M285 72l-85 -235l-46 13l59 243zM164 72l-86 -235l-45 13l59 243z" />
    <glyph glyph-name="dagger" unicode="&#x2020;" horiz-adv-x="380" 
d="M323 440h-91v-610h-83v610h-92v73h92v220h83v-220h91v-73z" />
    <glyph glyph-name="daggerdbl" unicode="&#x2021;" horiz-adv-x="380" 
d="M323 166h-91v-336h-83v336h-92v73h92v235h-92v73h92v186h83v-186h91v-73h-91v-235h91v-73z" />
    <glyph glyph-name="bullet" unicode="&#x2022;" horiz-adv-x="667" 
d="M473 339q0 -57 -40 -98t-97 -41q-58 0 -99 40.5t-41 98.5t41 98t99 40q57 0 97 -40.5t40 -97.5z" />
    <glyph glyph-name="ellipsis" unicode="&#x2026;" horiz-adv-x="560" 
d="M520 47q0 -22 -15.5 -38t-37.5 -16t-38 16t-16 38t16 37.5t38 15.5t37.5 -15.5t15.5 -37.5zM334 47q0 -22 -15.5 -38t-37.5 -16t-38 16t-16 38t16 37.5t38 15.5t37.5 -15.5t15.5 -37.5zM147 47q0 -22 -15.5 -38t-37.5 -16t-38 16t-16 38t16 37.5t38 15.5t37.5 -15.5
t15.5 -37.5z" />
    <glyph glyph-name="perthousand" unicode="&#x2030;" horiz-adv-x="979" 
d="M959 147q0 -70 -33 -112q-36 -46 -105 -46q-140 0 -140 159q0 72 33 114q36 46 107 46q138 0 138 -161zM298 499q0 -70 -35 -112q-38 -46 -106 -46q-69 0 -105 47q-32 42 -32 113t34 113q37 46 106 46q138 0 138 -161zM571 660l-436 -670h-61l436 670h61zM626 148
q0 -71 -33 -113q-36 -46 -105 -46q-140 0 -140 160q0 70 34 112q37 46 105 46q139 0 139 -159zM899 148q0 115 -78 115q-80 0 -80 -114t79 -114t79 113zM238 499q0 115 -77 115q-81 0 -81 -117q0 -110 78 -110q80 0 80 112zM566 148q0 114 -79 114t-79 -113q0 -115 79 -115
t79 114z" />
    <glyph glyph-name="guilsinglleft" unicode="&#x2039;" horiz-adv-x="221" 
d="M187 406l-102 -172l93 -177l-39 -21l-106 198l114 196z" />
    <glyph glyph-name="guilsinglright" unicode="&#x203a;" horiz-adv-x="221" 
d="M187 234l-106 -198l-39 21l93 177l-102 172l40 24z" />
    <glyph glyph-name="fraction" unicode="&#x2044;" horiz-adv-x="126" 
d="M256 667l-331 -667h-55l331 667h55z" />
    <glyph glyph-name="franc" unicode="&#x20a3;" horiz-adv-x="1035" 
d="M291 591h-150v-211h135v-76h-135v-304h-90v667h240v-76zM878 371q-7 1 -15 1q-47 0 -66 -28q-15 -23 -15 -73v-271h-83v447h83v-56q36 63 96 67v-87z" />
    <glyph glyph-name="u20AB" unicode="&#x20ab;" horiz-adv-x="393" 
d="M197 501q-48 0 -84 -88q-20 -49 -20 -90q0 -51 39 -51q41 0 74 71q28 60 28 107q0 51 -37 51zM200 267q-53 -62 -106 -62q-91 0 -91 102q0 82 54 153q58 78 137 78q34 0 61 -24l20 75h-100l10 36h100l2 16q0 31 -48 32l7 33q68 2 128 14l15 3q6 0 6 -9l-3 -12l-19 -77h65
l-10 -36h-65l-69 -280q-5 -20 -5 -27q0 -15 12 -15q6 0 49 42l20 -18q-70 -86 -117 -86q-43 0 -53 62zM9 160h221v-56h-221v56z" />
    <glyph glyph-name="trademark" unicode="&#x2122;" horiz-adv-x="496" 
d="M486 287h-61l-15 223l-48 -223h-43l-34 143q-6 23 -16 86l-15 -229h-60l35 380h54l38 -155q7 -29 19 -98q3 26 18 101l34 152h55zM185 616h-63v-329h-62v329h-65v51h190v-51z" />
    <glyph glyph-name="partialdiff" unicode="&#x2202;" horiz-adv-x="500" 
d="M473 251q0 -110 -55 -182q-60 -79 -167 -79q-95 0 -159.5 65.5t-64.5 161.5q0 91 59 154.5t149 63.5q82 0 141 -67q-27 63 -49 93q-79 108 -248 132l12 76q165 -22 255 -106q127 -118 127 -312zM384 221q0 61 -35 103q-37 46 -96 46q-63 0 -102 -50q-36 -45 -36 -110
q0 -60 37 -105q39 -49 98 -49q64 0 101 52q33 46 33 113z" />
    <glyph glyph-name="product" unicode="&#x220f;" horiz-adv-x="707" 
d="M669 -250h-249v81h82v838h-298v-838h81v-81h-248v81h80v838h-80v81h632v-81h-80v-838h80v-81z" />
    <glyph glyph-name="summation" unicode="&#x2211;" horiz-adv-x="667" 
d="M613 -250h-587v90l247 429l-247 392v89h577v-234h-78l-9 153h-393l252 -400l-252 -438h403l4 151h83v-232z" />
    <glyph glyph-name="minus" unicode="&#x2212;" horiz-adv-x="380" 
d="M346 304h-312v74h312v-74z" />
    <glyph glyph-name="radical" unicode="&#x221a;" horiz-adv-x="667" 
d="M667 749h-192l-203 -749h-110l-76 292h-86v81h157l32 -119q7 -26 25 -141h7q3 18 16 83q15 73 22 103q8 34 38 145l103 386h267v-81z" />
    <glyph glyph-name="infinity" unicode="&#x221e;" horiz-adv-x="667" 
d="M649 340q0 -68 -42.5 -112t-110.5 -44q-93 0 -161 99q-71 -98 -162 -98q-69 0 -112 43.5t-43 112.5q0 68 43.5 111.5t111.5 43.5q89 0 159 -98q68 98 163 98q69 0 111.5 -43.5t42.5 -112.5zM563 342q0 34 -22.5 57t-56.5 23q-58 0 -107 -82q53 -82 108 -82q35 0 56.5 24
t21.5 60zM290 340q-51 82 -108 82q-35 0 -56.5 -24t-21.5 -59q0 -34 22.5 -57t56.5 -23q46 0 83 46q8 12 24 35z" />
    <glyph glyph-name="integral" unicode="&#x222b;" horiz-adv-x="500" 
d="M417 740l-18 -77q-28 9 -50 9q-47 0 -53 -50q-2 -17 -2 -59v-595q0 -73 -1 -86q-4 -52 -23 -79q-36 -51 -120 -51q-39 0 -66 9l18 77q30 -9 50 -9q47 0 53 50q2 17 2 73v581q0 104 9 135q24 82 127 82q31 0 74 -10z" />
    <glyph glyph-name="approxequal" unicode="&#x2248;" horiz-adv-x="500" 
d="M491 473q-58 -117 -148 -117q-19 0 -47 9q-12 4 -94 38q-36 15 -60 15q-46 0 -83 -70l-50 33q55 120 138 120q34 0 107.5 -31t100.5 -31q46 0 85 64zM491 297q-58 -117 -148 -117q-17 0 -47 9q-17 5 -94 38q-35 15 -59 15q-46 0 -84 -70l-50 32q54 121 138 121
q34 0 107.5 -31t100.5 -31q46 0 85 64z" />
    <glyph glyph-name="approxequal" unicode="&#x22f2;" horiz-adv-x="500" 
d="M491 473q-58 -117 -148 -117q-19 0 -47 9q-12 4 -94 38q-36 15 -60 15q-46 0 -83 -70l-50 33q55 120 138 120q34 0 107.5 -31t100.5 -31q46 0 85 64zM491 297q-58 -117 -148 -117q-17 0 -47 9q-17 5 -94 38q-35 15 -59 15q-46 0 -84 -70l-50 32q54 121 138 121
q34 0 107.5 -31t100.5 -31q46 0 85 64z" />
    <glyph glyph-name="notequal" unicode="&#x2260;" horiz-adv-x="500" 
d="M467 217h-240l-53 -110l-58 26l40 84h-123v78h159l42 85h-201v78h236l55 111l58 -25l-42 -86h127v-78h-162l-42 -85h204v-78z" />
    <glyph glyph-name="lessequal" unicode="&#x2264;" horiz-adv-x="500" 
d="M466 154l-433 197v74l433 199v-82l-341 -153l341 -152v-83zM466 44h-433v81h433v-81z" />
    <glyph glyph-name="greaterequal" unicode="&#x2265;" horiz-adv-x="500" 
d="M466 351l-433 -197v83l341 152l-341 153v82l433 -199v-74zM466 44h-433v81h433v-81z" />
    <glyph glyph-name="SF370000" unicode="&#x255f;" horiz-adv-x="718" 
d="M359 0h-89l-25 130h-132l-26 -130h-86l145 667h70zM232 199l-20 107q-20 105 -32 231q-13 -127 -38 -252l-17 -86h107z" />
    <glyph glyph-name="SF420000" unicode="&#x2560;" horiz-adv-x="681" 
d="M290 0h-239v667h239v-76h-149v-212h132v-76h-132v-227h149v-76z" />
    <glyph glyph-name="SF190000" unicode="&#x2561;" horiz-adv-x="429" 
d="M141 0h-90v667h90v-667z" />
    <glyph glyph-name="SF200000" unicode="&#x2562;" horiz-adv-x="773" 
d="M385 317q0 -140 -22 -208q-38 -118 -147 -118q-120 0 -158 130q-20 68 -20 228q0 142 22 210q38 117 149 117q120 0 157 -131q19 -67 19 -228zM291 308q0 146 -2 164q-14 123 -76 123q-51 0 -68 -61q-13 -47 -13 -212q0 -113 5 -145q16 -103 75 -103q57 0 73 95
q6 36 6 139z" />
    <glyph glyph-name="SF230000" unicode="&#x2563;" horiz-adv-x="811" 
d="M358 183q0 -95 -28 -138q-35 -53 -125 -53q-105 0 -138 73q-16 36 -16 131v471h88v-471q0 -62 6 -80q13 -39 61 -39q44 0 57 33q7 18 7 73v484h88v-484z" />
    <glyph glyph-name="SF470000" unicode="&#x2564;" horiz-adv-x="699" 
d="M343 667l-116 -380v-287h-90v287l-139 380h95l44 -145q3 -8 10 -31q24 -78 33 -132q13 79 32 157l37 151h94z" />
    <glyph glyph-name="SF480000" unicode="&#x2565;" horiz-adv-x="541" 
d="M302 0h-83v58q-31 -65 -83 -65q-106 0 -106 236q0 225 108 225q50 0 81 -57v50h83v-447zM222 223q0 156 -53 156q-38 0 -49 -64q-5 -29 -5 -92q0 -64 5 -91q12 -64 49 -64q53 0 53 155z" />
    <glyph glyph-name="SF410000" unicode="&#x2566;" horiz-adv-x="431" 
d="M299 207h-188q3 -143 57 -143q50 0 51 87h77q-9 -158 -129 -158q-137 0 -137 228q0 232 133 232q137 0 136 -246zM215 266q-3 52 -8 72q-11 45 -44 45q-32 0 -44 -46q-4 -15 -8 -71h104z" />
    <glyph glyph-name="SF450000" unicode="&#x2567;" horiz-adv-x="314" 
d="M141 581q0 -23 -16.5 -39.5t-39.5 -16.5t-39.5 16.5t-16.5 39.5t16.5 39.5t39.5 16.5t39.5 -16.5t16.5 -39.5zM130 0h-83v447h83v-447z" />
    <glyph glyph-name="SF460000" unicode="&#x2568;" horiz-adv-x="314" 
d="M130 0h-83v447h83v-447z" />
    <glyph glyph-name="SF400000" unicode="&#x2569;" horiz-adv-x="498" 
d="M311 221q0 -228 -140 -228q-141 0 -141 228q0 233 141 233q140 0 140 -233zM226 222q0 63 -5 92q-11 65 -48 65q-39 0 -50 -65q-4 -24 -4 -92q0 -62 5 -90q11 -62 49 -62q37 0 48 63q5 28 5 89z" />
    <glyph glyph-name="SF540000" unicode="&#x256a;" horiz-adv-x="557" 
d="M313 180q0 -96 -16 -128q-30 -59 -118 -59q-75 0 -106 44q-26 37 -26 115v295h83v-267q0 -56 5 -76q8 -32 45 -32q42 0 48 39q2 13 2 69v267h83v-267z" />
    <glyph glyph-name="SF530000" unicode="&#x256b;" horiz-adv-x="497" 
d="M322 447l-182 -630h-87l69 219l-119 411h93l66 -312l77 312h83z" />
    <glyph glyph-name="lozenge" unicode="&#x25ca;" horiz-adv-x="667" 
d="M593 334l-259 -360l-260 360l260 359zM486 334l-152 209l-153 -209l153 -210z" />
    <glyph glyph-name="circle" unicode="&#x25cb;" horiz-adv-x="718" 
d="M589 780l-42 -34l-69 73l-64 -73l-46 34l111 123zM565 1053l-88 -119l-44 25l73 132z" />
    <glyph glyph-name="H18533" unicode="&#x25cf;" horiz-adv-x="718" 
d="M589 780l-42 -34l-69 73l-64 -73l-46 34l111 123zM580 960l-44 -25l-88 119l59 38z" />
    <glyph glyph-name="invbullet" unicode="&#x25d8;" horiz-adv-x="718" 
d="M589 780l-42 -34l-69 73l-64 -73l-46 34l111 123zM614 903q9 27 11 64q1 11 8 13q3 0 8 1q67 11 67 54q0 35 -28 35q-5 0 -14 -1t-14 -1q-21 0 -21 18q0 28 32 28q47 0 76.5 -25t25.5 -71q-6 -59 -87 -81q-25 -7 -31 -34h-33z" />
    <glyph glyph-name="invcircle" unicode="&#x25d9;" horiz-adv-x="718" 
d="M589 780l-42 -34l-69 73l-64 -73l-46 34l111 123zM636 1028q-3 -43 -13 -61q-15 -27 -53 -27q-16 0 -62 22q-11 5 -23 6q-17 1 -20 -24h-52q7 87 67 87q25 0 58 -19q16 -9 29 -10q14 -1 19 26h50z" />
    <glyph glyph-name="apple" unicode="&#xf000;" horiz-adv-x="822" 
d="M787 218q0 -22 -23.5 -59t-23.5 -32v-34q0 -43 -25 -69.5t-68 -26.5q-56 0 -102 52q-23 26 -63 95q-30 52 -49 52q-16 0 -16 -31q0 -28 5 -53l8 -23q15 -43 15 -76q0 -27 -13 -27q-8 0 -15 34q-2 10 -8 43q-14 46 -14 82q0 5 1 14.5t1 14.5q0 27 -10 28q-2 1 -16 -8
q-30 -20 -55 -79q-15 -35 -48 -98q-36 -47 -96 -47q-28 0 -56 27t-28 55v30q0 5 -17 25q-20 23 -22 28q-14 27 -14 63q0 42 38.5 74t81.5 32q56 0 112 -28q9 -4 26 -13.5t26 -13.5q36 -18 52 -18q15 0 15 14q0 28 -41 71l-78 82q-42 53 -42 102q0 42 33.5 75.5t75.5 33.5
q20 0 55 -19t29 -19q-7 0 -7 2q0 5 33 18q47 19 62 19q49 0 80 -32t31 -81q0 -63 -48 -118q-25 -28 -91 -78q-48 -36 -48 -54q0 -4 5.5 -9t9.5 -5q11 0 104.5 47t137.5 47q46 0 73 -31t27 -78z" />
    <glyph glyph-name="fi" unicode="&#xf001;" horiz-adv-x="373" 
d="M337 581q0 -23 -16.5 -39.5t-39.5 -16.5t-39.5 16.5t-16.5 39.5t16.5 39.5t39.5 16.5t39.5 -16.5t16.5 -39.5zM326 0h-83v447h83v-447zM213 644q-21 10 -35 10q-30 0 -36 -24q-3 -12 -3 -64v-119h70v-65h-70v-382h-83v382h-41v65h41v156q0 66 17 97q23 42 84 42
q25 0 56 -11v-87z" />
    <glyph glyph-name="fl" unicode="&#xf002;" horiz-adv-x="373" 
d="M326 0h-83v733h83v-733zM213 644q-21 10 -35 10q-30 0 -36 -24q-3 -12 -3 -64v-119h70v-65h-70v-382h-83v382h-41v65h41v156q0 66 17 97q23 42 84 42q25 0 56 -11v-87z" />
    <glyph glyph-name="periodcentered" horiz-adv-x="187" 
d="M147 234q0 -22 -15.5 -38t-37.5 -16t-38 16t-16 38t16 37.5t38 15.5t37.5 -15.5t15.5 -37.5z" />
    <glyph glyph-name="HT" horiz-adv-x="187" 
 />
    <glyph glyph-name="nonmarkingreturn" horiz-adv-x="187" 
 />
    <glyph glyph-name="glyph248" horiz-adv-x="187" 
 />
    <glyph glyph-name="glyph249" horiz-adv-x="187" 
 />
    <glyph glyph-name="glyph248" horiz-adv-x="187" 
 />
    <glyph glyph-name="glyph249" horiz-adv-x="187" 
 />
    <glyph glyph-name="glyph258" horiz-adv-x="278" 
 />
    <glyph glyph-name="glyph259" horiz-adv-x="278" 
 />
    <glyph glyph-name="glyph275" horiz-adv-x="249" 
 />
    <glyph glyph-name="glyph276" horiz-adv-x="249" 
 />
    <glyph glyph-name="glyph261" horiz-adv-x="500" 
d="M253 522q9 27 11 64q1 11 8 13q3 0 8 1q67 11 67 54q0 35 -28 35q-5 0 -14 -1t-14 -1q-21 0 -21 18q0 28 32 28q47 0 76.5 -25t25.5 -71q-6 -59 -87 -81q-25 -7 -31 -34h-33z" />
    <glyph glyph-name="glyph262" horiz-adv-x="541" 
d="M386 548l-42 -34l-69 73l-64 -73l-46 34l111 123zM361 822l-88 -119l-44 25l73 132z" />
    <glyph glyph-name="glyph263" horiz-adv-x="541" 
d="M386 548l-42 -34l-69 73l-64 -73l-46 34l111 123zM377 728l-44 -25l-88 119l59 38z" />
    <glyph glyph-name="glyph264" horiz-adv-x="541" 
d="M386 548l-42 -34l-69 73l-64 -73l-46 34l111 123zM411 671q9 27 11 64q1 11 8 13q3 0 8 1q67 11 67 54q0 35 -28 35q-5 0 -14 -1t-14 -1q-21 0 -21 18q0 28 32 28q47 0 76.5 -25t25.5 -71q-6 -59 -87 -81q-25 -7 -31 -34h-33z" />
    <glyph glyph-name="glyph265" horiz-adv-x="541" 
d="M386 548l-42 -34l-69 73l-64 -73l-46 34l111 123zM433 796q-3 -43 -13 -61q-15 -27 -53 -27q-16 0 -62 22q-11 5 -23 6q-17 1 -20 -24h-52q7 87 67 87q25 0 58 -19q16 -9 29 -10q14 -1 19 26h50z" />
    <glyph glyph-name="glyph266" horiz-adv-x="541" 
d="M389 630q-3 -59 -28 -87t-82 -28q-100 0 -109 115h55q3 -62 54 -62q30 0 42 17q9 13 13 45h55zM440 822l-88 -119l-44 25l73 132z" />
    <glyph glyph-name="glyph267" horiz-adv-x="541" 
d="M389 630q-3 -59 -28 -87t-82 -28q-100 0 -109 115h55q3 -62 54 -62q30 0 42 17q9 13 13 45h55zM324 728l-44 -25l-88 119l59 38z" />
    <glyph glyph-name="glyph268" horiz-adv-x="541" 
d="M389 630q-3 -59 -28 -87t-82 -28q-100 0 -109 115h55q3 -62 54 -62q30 0 42 17q9 13 13 45h55zM306 671q9 27 11 64q1 11 8 13q3 0 8 1q67 11 67 54q0 35 -28 35q-5 0 -14 -1t-14 -1q-21 0 -21 18q0 28 32 28q47 0 76.5 -25t25.5 -71q-6 -59 -87 -81q-25 -7 -31 -34h-33z
" />
    <glyph glyph-name="glyph269" horiz-adv-x="541" 
d="M389 630q-3 -59 -28 -87t-82 -28q-100 0 -109 115h55q3 -62 54 -62q30 0 42 17q9 13 13 45h55zM433 796q-3 -43 -13 -61q-15 -27 -53 -27q-16 0 -62 22q-11 5 -23 6q-17 1 -20 -24h-52q7 87 67 87q25 0 58 -19q16 -9 29 -10q14 -1 19 26h50z" />
    <glyph glyph-name="glyph270" horiz-adv-x="249" 
 />
  </font>
</defs>
</svg>
